<?xml version="1.0" standalone="no"?>
<!DOCTYPE svg PUBLIC "-//W3C//DTD SVG 1.1//EN" "http://www.w3.org/Graphics/SVG/1.1/DTD/svg11.dtd">
<svg xmlns="http://www.w3.org/2000/svg">
<metadata>Copyright (C) 2022 by original authors @ fontello.com</metadata>
<defs>
<font id="brsteeg" horiz-adv-x="1000" >
<font-face font-family="brsteeg" font-weight="400" font-stretch="normal" units-per-em="1000" ascent="850" descent="-150" />
<missing-glyph horiz-adv-x="1000" />
<glyph glyph-name="heart" unicode="&#xe800;" d="M0 476q0 122 88 210 84 84 204 86t208-78q88 80 208 78t204-86q88-88 88-210t-88-210q-4-4-346-342-27-27-66-27t-66 27q-2 0-346 342-88 88-88 210z m63 0q0-97 70-165l346-342q21-23 43 0l345 342q70 68 70 165t-70 165q-66 66-160 68t-164-60l-43-39-43 39q-70 62-164 60t-160-68q-70-68-70-165z m93 7q0 55 39 94t94 39q16 0 16-16t-16-16q-41 0-71-29t-30-72q0-16-16-16t-16 16z" horiz-adv-x="1000" />

<glyph glyph-name="star" unicode="&#xe801;" d="M4 457q14 41 57 47l262 39 113 235q19 41 64 41t65-41l113-235 262-39q43-6 56-47t-15-70l-192-191 43-264q8-43-29-68-18-14-41-14-18 0-35 8l-227 123-226-123q-18-8-35-8-24 0-41 14-38 25-30 68l43 264-189 191q-32 29-18 70z m69-21l191-191q25-26 19-61l-44-264 226 123q16 8 35 8t35-8l227-123-45 264q-6 35 20 61l191 191-260 37q-39 6-54 41l-114 234-113-234q-16-35-55-39z" horiz-adv-x="1001" />

<glyph glyph-name="user" unicode="&#xe802;" d="M4-105q-14 43 25 70 119 78 291 116-84 105-119 255-10 55-11 122t23 149 66 138q84 105 223 105t222-105q43-57 67-138t22-149-11-122q-35-150-119-255 172-38 291-116 39-27 26-71t-61-44l-875 0q-21 0-38 13t-22 32z m60 17l875 0q-109 73-267 108l-79 16q-45-30-91-30t-92 30l-78-16q-160-35-268-108z m193 602q-13-103 16-208t96-186l10-14q56-65 123-65t123 65l9 14q67 82 96 186t16 208q-14 113-76 193t-168 80-168-80-77-193z" horiz-adv-x="1003" />

<glyph glyph-name="camera" unicode="&#xe803;" d="M0 6l0 469q0 35 23 61t55 31l135 23 43 108q12 27 35 43t53 15l312 0q30 0 53-15t35-43l43-108 135-23q33-6 56-31t22-61l0-469q0-39-27-66t-67-28l-812 0q-39 0-67 28t-27 66z m63 0q0-13 8-22t23-9l812 0q14 0 23 9t8 22l0 469q0 27-25 31l-170 28-56 140q-8 20-30 20l-312 0q-22 0-30-20l-56-140-170-28q-25-4-25-31l0-469z m187 282q0 103 73 176t177 74 177-74 73-176-73-177-177-73-177 73-73 177z m63-15q5-77 65-128t137-45 128 65 45 137-66 128-137 45-128-65-44-137z m62 15q0 50 36 87t89 38q16 0 16-16t-16-16q-39 0-66-27t-28-66q0-16-15-16t-16 16z" horiz-adv-x="1000" />

<glyph glyph-name="photo" unicode="&#xe804;" d="M0-25l0 750q0 53 36 89t89 36l687 0q53 0 89-36t36-89l0-750q0-53-36-89t-89-36l-687 0q-53 0-89 36t-36 89z m63 0q0-25 18-44t44-19l687 0q26 0 44 19t19 44l0 750q0 25-19 44t-44 18l-687 0q-25 0-44-18t-18-44l0-750z m62 156l0 563q0 13 9 22t22 9l625 0q14 0 23-9t9-22l0-563q0-13-9-22t-23-9l-625 0q-13 0-22 9t-9 22z m31 0l483 0-88 100-18 21-252 286-125-145 0-262z m0 311l102 117q10 10 23 10t24-10l246-281 82 94q10 9 23 9t24-9l101-112 0 434-625 0 0-252z m344 96q0 39 27 66t67 27 66-27 28-66-28-67-66-27-67 27-27 67z m31 0q0-26 19-44t44-19 44 19 18 44-18 43-44 19-44-19-19-43z m41-284l108-123 101 0 0 82-125 137z" horiz-adv-x="937" />

<glyph glyph-name="attach" unicode="&#xe805;" d="M0 99q0 91 64 155l456 451q82 82 199 82t199-82 82-199-82-199l-344-342q-21-23-44-1t1 44l338 340q65 63 65 153t-65 156-155 64-153-64l-454-448q-44-45-44-109t45-110 111-46 109 45l457 451q27 27 27 66t-27 67-66 27-67-27l-341-344q-24-22-45 1t0 44l341 344q47 44 112 44t110-45 46-111-45-111l-457-449q-64-65-155-65t-154 64-64 154z" horiz-adv-x="1000" />

<glyph glyph-name="lock" unicode="&#xe806;" d="M0 131l0 219q0 39 27 66t67 28l0 125q0 117 82 199t199 82 199-82 82-199l0-125q39 0 67-28t27-66l0-219q0-117-82-199t-199-82l-188 0q-117 0-199 82t-82 199z m63 0q0-90 64-154t154-65l188 0q90 0 154 65t65 154l0 219q0 14-9 22t-23 9l-562 0q-14 0-23-9t-8-22l0-219z m93 313l63 0 0 125q0 64 46 110t110 46 110-46 46-110l0-125 63 0 0 125q0 90-65 154t-154 64-154-64-65-154l0-125z m94 0l250 0 0 125q0 52-36 89t-89 36-89-36-36-89l0-125z m63-250q0 25 18 44t44 18 44-18 19-44q0-28-22-84-14-41-41-41t-41 41q-21 56-21 84z" horiz-adv-x="750" />

<glyph glyph-name="tag" unicode="&#xe807;" d="M0 100l0 500q0 51 36 88t89 37l594 0q68 0 105-59l156-250q43-66 0-132l-156-250q-37-59-105-59l-594 0q-53 0-89 36t-36 89z m63 0q0-25 18-44t44-18l594 0q35 0 52 29l157 250q21 33 0 66l-157 250q-17 29-52 29l-594 0q-25 0-44-18t-18-44l0-500z m562 250q0 39 27 66t67 28 66-28 27-66-27-66-66-28-67 28-27 66z m31 0q0-25 19-44t44-18 44 18 18 44-18 44-44 19-44-19-19-44z" horiz-adv-x="1002" />

<glyph glyph-name="thumbs-up" unicode="&#xe808;" d="M0-56l0 500q0 39 27 66t67 28l94 0q32 0 60-24 12 6 33 16 123 64 125 226 0 39 28 67t66 27q57 0 105-64t49-147q0-66-8-103 237-6 266-14 43-12 66-43t22-63l0-23q-2-39-27-68 17-34 11-75-7-54-41-86 16-37 0-83-17-59-52-83 7-27 0-54-6-18-14-34-33-60-111-60l-172 0q-92 0-186 21-92 22-127 30l-2 0q0 2-3 2l-4 0 0 2q-28-55-84-55l-94 0q-39 0-67 27t-27 67z m63 0q0-14 8-23t23-9l94 0q13 0 22 9t9 23l0 500q0 13-9 22t-22 9l-94 0q-14 0-23-9t-8-22l0-500z m31 47q0 19 13 33t34 14 33-14 14-33-14-34-33-13-34 13-13 34z m31 0q0-16 16-16t15 16-15 15-16-15z m125 3q0-23 27-27 22-6 145-35 88-20 172-20l172 0q41 0 56 28 6 15 8 23 6 12-2 28t-29 15l-49 0q-16 0-16 16t16 16l51 0q31 0 49 10t22 20 11 30q21 65-39 65l-63 0q-15 0-15 15t15 16l74 0q57 0 69 66 2 22-9 40t-42 19l-61 0q-15 0-15 15t15 16l63 0q61 0 62 45l0 21q0 38-37 47-45 12-337 12 19 59 24 84t5 80q0 57-32 103t-60 45q-31 0-31-31-2-92-46-173t-142-122q-2 0-4-1l-2-1q-25-7-25-33l0-432z" horiz-adv-x="1000" />

<glyph glyph-name="cloud" unicode="&#xe809;" d="M0 178q0 55 27 102t75 74q-8 21-8 43 0 58 41 99t99 42q20 0 43-8 34 74 102 119t152 45q110 0 189-73t91-181q82-16 135-80t54-151q0-97-68-166t-166-68l-563 0q-84 0-143 60t-60 143z m63 0q0-58 41-99t99-41l563 0q70 0 121 50t50 121q0 63-39 110t-99 58q-35 8-42 15t-9 42q-8 84-70 141t-147 56q-62 0-117-34t-80-93q-10-19-12-24t-8-13-15-6-22 6q-21 10-43 8-33 0-55-22t-23-56q0-10 4-24 14-33 10-44t-37-30q-70-41-70-121z" horiz-adv-x="1000" />

<glyph glyph-name="money" unicode="&#xe80a;" d="M3 243q31 97 107 173 59 61 203 145 129 74 178 123 55 55 74 121 6 16 16 27 14 12 29 16 35 8 61-16l312-312q26-27 16-63-31-99-108-173-58-61-203-145-129-74-177-123-55-53-75-121-6-16-15-27-14-12-30-16-35-8-60 16l-313 312q-25 27-15 63z m60-18l99-99 115-115 99-99q25 79 84 140t128 102l138 80t129 101 83 140l-157 157-155 155q-24-78-83-139t-129-102l-139-80t-128-101-84-140z m274-199l21 29q22 27 47 53 22 23 55 49 11 9 21 0 12-12 0-24l-2 0q-31-25-52-47-24-23-43-48l-20-28q-2-2-2-4-12-12-23 0-8 10-2 20z m27 359q2 18 10 33 8 18 19 32 0 2-5 5-4 2-4 7t4 10 8 5 7-4q4-4 8-6 8 8 20 16t28 12 29 1 24-15q8-8 8-18t-8-15q-5-6-15-4-6 2-18 4-9 4-20 3t-23-11q20-20 51-57 14 8 31 14 16 6 32 8t31-3 31-17q14-12 20-25 4-14 2-30 0-15-10-33-8-19-22-37 8-6 16-13 4-2 5-7t-3-9-9-5-9 3q-9 8-15 16-18-18-35-24-16-6-34-6-15 2-28 8t-20 15-8 17 8 16 13 7 13-3 13-8 13-7 17 0 20 12q-21 21-56 62-32-17-65-19-29-2-50 15-14 12-20 26t-4 29z m42 11q-1-7 1-14t8-10q10-10 22-9t33 10q-30 32-49 51-6-8-10-14t-5-14z m112 143q-9 10 0 22 2 2 4 2 32 25 53 47 23 23 43 49l19 27q2 4 4 4 12 12 22 0 10-10 2-22l-22-29q-21-27-47-53-21-23-54-48-12-10-24 1z m4-195q32-35 53-56 6 5 10 13t6 16 0 14-9 14-15 9-15 1-16-5q-4-2-14-6z" horiz-adv-x="1001" />

<glyph glyph-name="mail" unicode="&#xe80b;" d="M0 163l0 406q0 51 36 88t89 37l750 0q53 0 89-37t36-88l0-406q0-53-36-89t-89-36l-750 0q-53 0-89 36t-36 89z m63 0q0-26 18-44t44-19l750 0q25 0 44 19t18 44l-244 183-136-101q-26-20-57-20t-57 20l-136 101z m0 39l218 164-218 164 0-328z m0 367l244-184 27-19 129-98q16-12 37-12t37 12l400 301q0 25-18 44t-44 18l-750 0q-25 0-44-18t-18-44z m656-203l218-164 0 328z" horiz-adv-x="1000" />

<glyph glyph-name="search" unicode="&#xe80c;" d="M0-41q0 47 33 80l260 260q-43 82-43 176 0 154 109 265t266 110 266-110 109-266-109-265-266-109q-94 0-176 43l-260-260q-33-33-80-33-45 0-77 32t-32 77z m55 1q0-22 16-39t39-16 40 17l252 252q-45 33-78 78l-252-252q-17-17-17-40z m258 515q0-129 91-221t221-91 221 91 91 221-91 221-221 91-221-91-91-221z m93 0q0 90 65 154t154 65q16 0 16-16t-16-16q-78 0-133-54t-54-133q0-16-16-16t-16 16z" horiz-adv-x="1000" />

<glyph glyph-name="heart-empty" unicode="&#xe80d;" d="M1063 562v-60q0-285-532-653-531 367-531 653v60q0 127 81 207t206 80q81 0 134-30t110-99q58 68 111 99t133 30q126 0 207-80t81-207z m-117-55v50q0 58-39 114t-95 61q-12 2-37 2-53 0-83-19t-72-69l-89-105-89 105q-42 49-72 69t-83 19q-24 0-37-2-56-6-93-60t-41-115v-50q0-30 17-75 68-199 398-441 329 239 399 441 16 50 16 75z" horiz-adv-x="1063" />

<glyph glyph-name="user-1" unicode="&#xe80e;" d="M1070-88q0-21-2-63h-1067q0 10 0 31t-1 32q0 30 1 37 12 49 64 85t112 53 125 47 97 65q17 22 17 38 0 22-11 73-4 21-10 37t-16 33-16 31q-15 35-33 132-6 38-6 75 0 105 54 168t157 63 158-63 53-168q0-31-7-75-14-89-32-132-6-14-15-31t-16-33-11-37q-11-51-11-73 0-18 17-38 31-36 97-65t125-47 111-53 64-85q2-8 2-37z" horiz-adv-x="1070" />

<glyph glyph-name="picture" unicode="&#xe80f;" d="M1360 849v-1000h-1360v1000h1360z m-1240-880h1120v760h-1120v-760z m1000 560q0-33-23-56t-57-24-56 24-24 56 24 57 56 23 57-23 23-57z m43-473q2-1 1-4t-4-3h-956q-4 0-4 4v2q18 36 135 280t144 299q1 2 4 3t3-2l311-386 152 122h7l1-2q39-50 102-155t104-158z" horiz-adv-x="1360" />

<glyph glyph-name="ok" unicode="&#xe810;" d="M1179 778q-250-222-600-750l-115-179q-144 180-464 500l107 107 286-250q150 150 279 272t206 187 131 111 77 59l21 14q4 0 11-2t26-19 35-50z" horiz-adv-x="1179" />

<glyph glyph-name="link" unicode="&#xe811;" d="M1000 583q0-112-78-188l-175-176q-78-78-189-78-97 0-171 63l115 115q26-17 56-17 44 0 75 31l175 176q31 29 31 74 0 44-30 75t-75 30q-25 0-49-12t-33-34h-238l132 129q80 78 188 78 110 0 188-78t78-188z m-387-89l-115-115q-26 17-56 17-44 0-75-31l-175-176q-31-29-31-74 0-44 31-74t74-31q25 0 50 12t32 34h238l-132-129q-80-78-188-78-110 0-188 78t-78 188q0 112 78 188l175 176q78 78 189 78 97 0 171-63z" horiz-adv-x="1000" />

<glyph glyph-name="chat" unicode="&#xe812;" d="M1179 385q0-126-79-233t-215-170-296-62q-122 0-234 39l2-3-357-107q44 59 71 126t31 106l4 38q-106 120-106 266 0 126 79 233t215 169 295 62 296-62 215-169 79-233z m-250 0q0 29-21 50t-51 21q-29 0-50-21t-21-50q0-30 21-51t50-21q30 0 51 21t21 51z m-250 0q0 29-21 50t-51 21q-29 0-50-21t-21-50q0-30 21-51t50-21q30 0 51 21t21 51z m-250 0q0 29-21 50t-51 21q-29 0-50-21t-21-50q0-30 21-51t50-21q30 0 51 21t21 51z" horiz-adv-x="1179" />

<glyph glyph-name="progress-0" unicode="&#xe813;" d="M559 653h-118v265h118v-265z m0-735h-118v265h118v-265z m176 441v118h265v-118h-265z m-735 118h265v-118h-265v118z m292 66l-187 187 83 83 187-187z m520-520l-187 187 83 83 187-187z m-624 0l-83 83 187 187 83-83z" horiz-adv-x="1000" />

<glyph glyph-name="megaphone" unicode="&#xe814;" d="M0 344l0 123q2 35 26 60t58 24l270 0q138 8 272 65t229 152q36-2 59-26t23-58l0-199q28-8 45-30t18-50q-2-30-19-51t-44-27l0-201q-1-36-26-59t-56-24q-207 184-449 211-66-33-53-127t77-142q-28-47-96-52t-105 30q-16 45-25 76t-16 71-7 78 10 72l-107 0q-35 2-60 27t-24 57z m438-10q240-44 419-183l0 508q-203-151-419-182l0-143z" horiz-adv-x="1000" />

<glyph glyph-name="credit-card" unicode="&#xe815;" d="M0 18l0 664 1000 0 0-664-1000 0z m63 63l874 0 0 296-874 0 0-296z m0 439l874 0 0 100-874 0 0-100z m60-361q0 13 5 21t15 8 14-8 5-21-5-22-14-8-15 8-5 22z m8 0q0-12 3-18t9-6 8 6 3 18-3 17-8 6-9-6-3-17z m43 0q0 13 5 21t14 8 15-8 5-21-5-22-15-8-14 8-5 22z m8 0q0-12 3-18t8-6 9 6 3 18-3 17-9 6-8-6-3-17z m41 0q0 13 5 21t14 8 15-8 5-21-5-22-15-8-14 8-5 22z m8 0q0-12 2-18t9-6 9 6 3 18-3 17-9 6-9-6-2-17z m42 0q0 13 5 21t15 8 15-8 5-21-5-22-15-8-15 8-5 22z m8 0q0-12 3-18t9-6 9 6 3 18-3 17-9 6-9-6-3-17z m39-10l0 6 22 0 0-6-22 0z m32 10q0 13 4 21t15 8 15-8 5-21-5-22-15-8-15 8-4 22z m7 0q0-12 3-18t9-6 9 6 3 18-3 17-9 6-9-6-3-17z m41 0q0 13 5 21t15 8 15-8 4-21-4-22-15-8-15 8-5 22z m8 0q0-12 3-18t9-6 9 6 3 18-3 17-9 6-9-6-3-17z m41 0q0 13 6 21t15 8 14-8 6-21-6-22-14-8-15 8-6 22z m8 0q0-12 4-18t10-6 9 6 2 18-2 17-9 6-10-6-4-17z m43 0q0 13 5 21t15 8 14-8 5-21-5-22-14-8-15 8-5 22z m8 0q0-12 3-18t9-6 8 6 3 18-3 17-8 6-9-6-3-17z" horiz-adv-x="1000" />

<glyph glyph-name="emo-thumbsup" unicode="&#xe816;" d="M744 850c-60 0-109-64-109-143 0-79 49-143 109-143 60 0 108 64 108 143 0 79-48 143-108 143z m-602-80c-29 0-53-24-53-54s24-53 53-53l290 0c30 0 54 24 54 53s-24 53-54 53l-290 1z m1040-21c-16 0-34-2-54-7-112-51-109-174-93-266l-131 0c-68 0-124-53-124-123 0-34 8-71 30-98-10-11-18-24-23-38-18-48-10-106 23-144-5-6-18-27-18-27-29-57-10-144 46-179 17-11 38-17 64-17l378 0c91 3 167 76 167 169l0 287c0 49-30 108-49 151-25 58-49 116-73 174-30 72-71 118-143 118z m3-115c30 1 42-48 51-67 21-52 42-129 64-181 21-47 38-88 38-104l0-255c0-41-36-72-76-74l-332 0c-17 0-26 9-30 24-5 15-7 34 4 47 6 8 16 13 26 13 21-1 39 17 39 38 0 21-17 37-38 37-9 0-18 4-24 11-15 16-16 50 0 65 3 4 7 6 12 8 4 1 8 2 12 2 20 0 38 17 38 38 0 21-17 38-38 38-28 0-34 28-34 50 0 12 7 23 17 29-1 2 189 4 210 4 27 0 47 30 33 55-27 51-45 207 22 221 2 1 4 1 6 1z m-1133-264c-7 0-14-1-20-4-27-12-39-44-27-71 66-148 194-254 344-297 29-8 59-14 90-17 30-3 61-4 91-2l3 0 2 0c30 3 52 28 50 58-2 29-28 51-58 49l-2 0-1 0c-25-2-50-1-74 1-24 3-48 8-72 14-120 34-222 120-276 238-9 20-29 32-50 31z" horiz-adv-x="1447" />

<glyph glyph-name="basket" unicode="&#xe817;" d="M357-7q0-29-21-50t-50-22-50 22-22 50 22 50 50 21 50-21 21-50z m500 0q0-29-21-50t-50-22-50 22-22 50 22 50 50 21 50-21 21-50z m72 607v-286q0-13-10-23t-22-12l-583-68q7-34 7-40 0-8-13-35h513q15 0 26-11t10-25-10-25-26-11h-571q-14 0-25 11t-11 25q0 6 5 18t9 20 12 22 8 17l-98 459h-114q-15 0-25 10t-11 25 11 26 25 10h143q9 0 16-3t10-9 8-14 4-14 3-17 3-14h670q14 0 25-11t11-25z" horiz-adv-x="928.6" />

<glyph glyph-name="down-circled2" unicode="&#xe818;" d="M625 332q0-7-6-13l-178-178q-6-5-12-5t-13 5l-179 178q-8 9-4 20 5 11 17 11h107v196q0 8 5 13t13 5h107q8 0 13-5t5-13v-196h107q8 0 13-5t5-13z m-196 322q-83 0-153-41t-110-111-41-152 41-152 110-111 153-41 152 41 110 111 41 152-41 152-110 111-152 41z m428-304q0-117-57-215t-156-156-215-58-216 58-155 156-58 215 58 215 155 156 216 58 215-58 156-156 57-215z" horiz-adv-x="857.1" />

<glyph glyph-name="up-circled2" unicode="&#xe819;" d="M624 361q-5-11-17-11h-107v-196q0-8-5-13t-13-5h-107q-8 0-13 5t-5 13v196h-107q-8 0-13 5t-5 13q0 7 6 13l178 178q6 5 13 5t12-5l179-178q8-9 4-20z m-195 293q-83 0-153-41t-110-111-41-152 41-152 110-111 153-41 152 41 110 111 41 152-41 152-110 111-152 41z m428-304q0-117-57-215t-156-156-215-58-216 58-155 156-58 215 58 215 155 156 216 58 215-58 156-156 57-215z" horiz-adv-x="857.1" />

<glyph glyph-name="down-open" unicode="&#xe81a;" d="M939 399l-414-413q-10-11-25-11t-25 11l-414 413q-11 11-11 26t11 25l93 92q10 11 25 11t25-11l296-296 296 296q11 11 25 11t26-11l92-92q11-11 11-25t-11-26z" horiz-adv-x="1000" />

<glyph glyph-name="left-open" unicode="&#xe81b;" d="M654 682l-297-296 297-297q10-10 10-25t-10-25l-93-93q-11-10-25-10t-25 10l-414 415q-11 10-11 25t11 25l414 414q10 11 25 11t25-11l93-93q10-10 10-25t-10-25z" horiz-adv-x="714.3" />

<glyph glyph-name="right-open" unicode="&#xe81c;" d="M618 361l-414-415q-11-10-25-10t-25 10l-93 93q-11 11-11 25t11 25l296 297-296 296q-11 11-11 25t11 25l93 93q10 11 25 11t25-11l414-414q10-11 10-25t-10-25z" horiz-adv-x="714.3" />

<glyph glyph-name="up-open" unicode="&#xe81d;" d="M939 107l-92-92q-11-10-26-10t-25 10l-296 297-296-297q-11-10-25-10t-25 10l-93 92q-11 11-11 26t11 25l414 414q11 10 25 10t25-10l414-414q11-11 11-25t-11-26z" horiz-adv-x="1000" />

<glyph glyph-name="heart-empty-1" unicode="&#xe81e;" d="M790 642q70-64 70-156t-70-156l-360-330-360 330q-70 64-70 156t70 156q64 58 152 58t150-58l58-52 56 52q64 58 152 58t152-58z m-54-260q42 40 42 104 0 66-38 100-38 38-102 38-52 0-104-48l-104-92-106 92q-48 48-102 48-64 0-104-38-38-36-38-100 0-66 44-104l306-286z" horiz-adv-x="860" />

<glyph glyph-name="star-empty" unicode="&#xe81f;" d="M880 454l-262-196 94-348-272 208-272-208 94 348-262 196 320 0 120 336 120-336 320 0z m-440-238l150-124-62 178 144 114-176-4-56 202-54-202-176 4 142-114-62-178z" horiz-adv-x="880" />

<glyph glyph-name="thumbs-up-1" unicode="&#xe820;" d="M582 480q2-6 58-13t108-24 52-47q0-72-61-284t-107-212q-144 0-288 42t-144 88l0 342q0 14 15 34t46 45 53 41 62 43 46 31q50 34 104 100t85 104 41 26q48-76 29-137t-59-119-40-60z m-432-4q14 0 0-14-50-50-50-104l0-318q0-50 52-104 10-10-2-10-26 0-55 8t-62 45-33 99l0 242q0 62 33 100t63 47 54 9z" horiz-adv-x="800" />

<glyph glyph-name="code" unicode="&#xe821;" d="M380 636q16-14 16-32t-16-30l-246-224 246-226q16-12 16-30t-16-32q-30-30-60 0l-320 288 320 286q30 30 60 0z m302 0l318-286-318-288q-32-30-62 0-32 32 0 62l248 226-248 224q-32 30 0 62 30 30 62 0z" horiz-adv-x="1000" />

<glyph glyph-name="newspaper" unicode="&#xe822;" d="M700 800q42 0 71-29t29-71l0-700q0-40-29-70t-71-30l-600 0q-40 0-70 30t-30 70l0 700q0 42 30 71t70 29l600 0z m0-800l0 700-600 0 0-700 600 0z m-250 250l0-50-250 0 0 50 250 0z m150 200l0-50-200 0 0 50 200 0z m-200 50l0 100 200 0 0-100-200 0z m-50 100l0-200-150 0 0 200 150 0z m-50-250l0-50-100 0 0 50 100 0z m50-50l0 50 250 0 0-50-250 0z m250-150l0-50-400 0 0 50 400 0z m-100 50l0 50 100 0 0-50-100 0z" horiz-adv-x="800" />

<glyph glyph-name="clock" unicode="&#xe823;" d="M460 810q190 0 325-135t135-325-135-325-325-135-325 135-135 325 135 325 325 135z m0-820q150 0 255 106t105 254q0 150-105 255t-255 105q-148 0-254-105t-106-255q0-148 106-254t254-106z m36 620l0-244 150-150-50-50-170 170 0 274 70 0z" horiz-adv-x="920" />

<glyph glyph-name="rocket" unicode="&#xe824;" d="M543 236q6-50 8-81t-8-59-13-40-35-32-45-26-70-31-85-37q-32-12-45 4t-3 44l40 110-130 132-106-40q-28-12-43 2t-3 46q12 30 31 79t27 65 22 45 25 36 29 20 41 13l52 0t71-6q10 14 29 39t77 85 118 104 145 75 165 19q8 0 14-6 4-4 6-14 10-82-18-168t-76-151-98-118-86-81z m50 296q22-22 54-22t54 22q22 24 22 56t-22 56q-22 22-54 22t-54-22q-22-24-22-56t22-56z" horiz-adv-x="860" />

<glyph glyph-name="install" unicode="&#xe825;" d="M884 306q24-52 14-96l-34-184q-2-20-19-35t-39-15l-712 0q-22 0-39 15t-19 35l-34 184q-8 50 14 96l158 374q22 46 72 46l104 0-20-204-134 0 254-210 256 210-136 0-18 204 102 0q50 0 74-46z m-68-132q2 22-10 38t-34 16l-644 0q-22 0-34-16t-10-38l14-74q2-22 19-37t37-15l592 0q22 0 39 15t19 37z" horiz-adv-x="901" />

<glyph glyph-name="cloud-1" unicode="&#xe826;" d="M760 494q100 0 170-68t70-166-70-166-170-68l-578 0q-74 0-128 52t-54 124q0 74 53 126t129 52q2 0 10-1t10-1q-2 12-2 38 0 108 78 184t188 76q90 0 160-52t94-134q28 4 40 4z" horiz-adv-x="1000" />

<glyph glyph-name="monitor" unicode="&#xe827;" d="M900 790q42 0 71-30t29-70l0-550q0-42-29-77t-69-43l-218-44 86-38q50-28-20-28l-500 0q-98 0 32 52l36 14-220 44q-40 8-69 43t-29 77l0 550q0 40 30 70t70 30l800 0z m0-646l0 556-800 0 0-556 800 0z" horiz-adv-x="1000" />

<glyph glyph-name="back-in-time" unicode="&#xe828;" d="M532 760q170 0 289-120t119-290-119-290-289-120q-138 0-252 88l70 76q82-60 182-60 126 0 216 90t90 216q0 128-90 218t-216 90q-124 0-213-86t-93-210l142 0-184-206-184 206 124 0q4 166 123 282t285 116z m-36-190l70 0 0-204 130-130-50-50-150 150 0 234z" horiz-adv-x="940" />

<glyph glyph-name="trophy" unicode="&#xe829;" d="M510 134l0-66q70-8 116-32t46-56q0-36-65-63t-157-27q-90 0-156 27t-66 63q0 32 46 56t118 32l0 66q0 50-33 84t-113 88q-56 36-87 61t-75 72-64 108-20 137q0 14 11 24t25 10l172 0q48 92 242 92 196 0 244-92l170 0q14 0 25-10t11-24q0-76-20-137t-64-108-75-72-87-61q-78-52-111-87t-33-85z m138 252q80 56 126 114t54 148l-126 0q-6-158-54-262z m-198 364q-62 0-108-15t-64-32-18-29q0-14 18-31t64-32 108-15 108 15 64 32 18 31q0 12-18 29t-64 32-108 15z m-378-102q8-90 54-148t126-114q-48 104-54 262l-126 0z" horiz-adv-x="900" />

<glyph glyph-name="infinity" unicode="&#xe82a;" d="M796 570q84 0 144-53t60-167q0-112-60-166t-144-54q-78 0-157 40t-139 106q-58-66-137-106t-157-40q-86 0-146 54t-60 166q0 114 60 167t146 53q78 0 157-39t137-105q58 66 138 105t158 39z m-590-352q60 0 127 37t113 95q-46 58-112 95t-128 37q-114 0-114-132t114-132z m590 0q114 0 114 132t-114 132q-62 0-129-37t-111-95q44-58 111-95t129-37z" horiz-adv-x="1000" />

<glyph glyph-name="brush-1" unicode="&#xe82b;" d="M118 170q38 34 85 29t87-45q42-40 48-87t-30-83q-86-84-228-102-84-12-80 14 0 4 6 10 52 60 64 145t48 119z m840 646q26-26-148-248t-292-338q-38-38-124-104-8-6-16 8-18 34-48 64-32 32-66 48-16 6-8 16 64 84 104 122 118 116 344 287t254 145z" horiz-adv-x="962" />

<glyph glyph-name="credit-card-1" unicode="&#xe82c;" d="M900 700q42 0 71-30t29-70l0-500q0-42-29-71t-71-29l-800 0q-40 0-70 29t-30 71l0 500q0 40 30 70t70 30l800 0z m0-600l0 300-800 0 0-300 800 0z m0 450l0 50-800 0 0-50 800 0z m-700-256l30 0 0-30-30 0 0 30z m180-60l30 0 0 30 30 0 0 30 60 0 0-30-30 0 0-30-30 0 0-30-60 0 0 30z m120-30l-30 0 0 30 30 0 0-30z m-150 0l-60 0 0 30 60 0 0-30z m30 60l0-30-30 0 0 60 60 0 0-30-30 0z m-120-30l0-30-60 0 0 30 30 0 0 30 30 0 0 30 60 0 0-30-30 0 0-30-30 0z" horiz-adv-x="1000" />

<glyph glyph-name="megaphone-1" unicode="&#xe82d;" d="M792 500q58-138 67-258t-39-140q-28-12-61 3t-65 40-99 41-149 8q-28-4-42-19t-6-37q22-56 46-108 4-10 24-22t24-20q14-34-22-46-50-22-102-40-30-10-54 42-32 76-58 132-6 12-34 17t-46 31q-30-10-38-14-34-12-74 12t-54 60q-17 32-5 79t43 61q126 52 213 108t124 103 59 92 25 78 15 59 36 36q48 20 130-70t142-228z m-28-300q8 4 10 38t-11 98-41 128q-28 66-67 123t-67 84-36 23-10-42 10-105 40-133 68-119 68-76 36-19z" horiz-adv-x="860" />

<glyph glyph-name="clipboard" unicode="&#xe82e;" d="M630 750q28 0 49-21t21-49l0-760q0-30-21-50t-49-20l-560 0q-28 0-49 20t-21 50l0 760q0 28 21 49t49 21l60-150 440 0z m-100-100l-360 0-44 100 108 0 36 100 160 0 36-100 110 0z" horiz-adv-x="700" />

<glyph glyph-name="ok-outline" unicode="&#xe82f;" d="M365-41q-66 0-111 45l-208 209q-46 46-46 110 0 65 46 111 44 44 110 44t110-44l63-62 160 287q20 38 57 60t79 22q88 0 134-76t2-157l-260-469q-43-80-136-80z m-209 417q-21 0-37-16t-15-37q0-20 16-36l208-209q18-19 44-15t38 26l260 469q11 23 4 43t-24 28q-19 10-39 4t-31-24l-227-408-160 160q-15 15-37 15z" horiz-adv-x="783" />

<glyph glyph-name="camera-outline" unicode="&#xe830;" d="M885-66l-729 0q-65 0-110 46t-46 110l0 417q0 65 46 110t110 46l83 0 52 52q23 23 58 37t67 15l209 0q33 0 68-15t58-37l52-52 82 0q65 0 111-46t45-110l0-417q0-65-45-110t-111-46z m-729 625q-21 0-37-16t-15-36l0-417q0-21 15-37t37-15l729 0q21 0 37 15t16 37l0 417q0 21-16 36t-37 16l-104 0q-21 0-36 15l-67 68q-22 21-53 21l-209 0q-30 0-51-21l-67-68q-15-15-38-15l-104 0z m365-105q-53 0-92-38t-39-92 39-92 92-38 92 38 38 92-38 92-92 38z m0 53q77 0 129-54t53-129q0-75-54-129t-128-53q-76 0-129 53t-53 129q0 76 53 129t129 54z m313 16q27 0 47-20t20-49-19-48-48-19-49 20-20 47q0 29 20 49t49 20z" horiz-adv-x="1041" />

<glyph glyph-name="picture-1" unicode="&#xe831;" d="M209 481q0 130 130 130t130-130-130-130-130 130z m520-79q41 0 77-61 52-93 79-251l-729 0 17 52q17 54 55 105t85 51q53 0 126-38 25-14 56-14 38 0 86 55 58 65 92 85 27 16 56 16z m-729 261q0 43 30 73t74 31l834 0q42 0 73-31t30-73l0-625q0-44-30-74t-73-31l-834 0q-43 0-73 31t-31 74l0 625z m938-625l0 625-834 0 0-625 834 0z" horiz-adv-x="1041" />

<glyph glyph-name="star-1" unicode="&#xe832;" d="M741-118q-19 0-39 12l-213 121-215-121q-44-24-84 3-41 29-31 79l50 243q-10 9-39 35t-45 40l-99 90q-37 35-21 82t66 54l244 26 102 225q22 47 72 47 47 0 71-47l101-225 245-27q48-4 65-52t-21-83l-183-166 50-242q7-35-16-64t-60-30z m-425 343q-1-4-7-36t-17-84-20-92l190 107q27 14 52 0l190-107-44 213q-6 29 16 49l161 148-217 23q-30 4-41 30l-90 199-90-199q-13-26-43-30l-216-23 161-148q21-19 15-50z" horiz-adv-x="976" />

<glyph glyph-name="heart-1" unicode="&#xe833;" d="M508-66q-17 0-29 9-26 17-85 58t-154 112-134 110q-106 106-106 264 0 116 82 198t198 82q143 0 228-118 38 55 99 86t129 32q117 0 198-82t81-198q0-158-106-264-38-38-133-110t-155-113-83-57q-13-9-30-9z m-228 729q-72 0-124-51t-52-125q0-114 76-190 79-79 328-248 248 169 327 248 76 76 76 190 0 73-51 125t-124 51q-73 0-125-51t-51-125q0-22-16-37t-36-15-37 15-15 37q0 73-52 125t-124 51z" horiz-adv-x="1015" />

<glyph glyph-name="mail-1" unicode="&#xe834;" d="M834 688q44 0 74-30t30-74l0-468q0-43-30-74t-74-30l-730 0q-44 0-74 30t-30 74l0 468q0 44 30 74t74 30l730 0z m-421-454l-82 72-190-190 655 0-190 190-81-72q-24-20-56-20t-56 20z m-309-82l187 189-187 163 0-352z m542 189l188-188 0 351z m188 243l-730 0 0-11 342-300q9-7 23-7t22 7l343 300 0 11z" horiz-adv-x="938" />

<glyph glyph-name="home-outline" unicode="&#xe835;" d="M1108 422q38-30 38-80 0-42-30-73t-75-31l-51 0 0-312q0-44-31-75t-74-30l-625 0q-42 0-73 30t-31 75l0 312-52 0q-44 0-74 31t-30 73q0 46 36 79 79 66 204 174t211 181 88 75l34 29 35-29q1-1 86-75t211-181 203-173z m-430-496l0 260-209 0 0-260 209 0z m207 416l156 0q-231 194-468 400-238-206-469-400l156 0 0-416 156 0 0 312 313 0 0-312 156 0 0 416z" horiz-adv-x="1146" />

<glyph glyph-name="pin-outline" unicode="&#xe836;" d="M856 554q30-30 30-73t-30-75q-16-16-36-24-106-51-144-125-51-102-51-246 0-45-29-74t-75-30q-47 0-75 30l-167 169-279-199 199 279-169 168q-20 18-27 49t5 64q27 65 96 65 146 0 246 50l11 7q69 37 118 141 7 20 21 34 30 30 74 29t74-31z m-273-250q53 107 196 175l-205 211q-69-146-176-200l-13-6q-120-57-281-57l416-416q0 168 63 293z" horiz-adv-x="886" />

<glyph glyph-name="tags" unicode="&#xe837;" d="M1011 502q30-32 30-74t-30-73l-56-56 5-5q30-31 29-74t-30-73l-364-366q-30-30-74-30t-73 30q-227 227-342 338-106 106-106 258 0 102 54 188-8 165 105 278 106 106 257 106 153 0 259-106z m-490-647l364 365-336 340q-76 77-184 77-109 0-185-77t-76-183 76-184q115-111 341-338z m102 779l258-261 57 56-337 340q-76 76-185 76-107 0-183-76-35-35-54-79 86 52 186 52 150 0 258-108z m-258-179q-32 0-56-23t-23-55 23-55 56-23 55 23 23 55-23 55-55 23z m0 52q54 0 92-39t38-91-38-92-92-38-92 38-38 92 38 91 92 39z" horiz-adv-x="1041" />

<glyph glyph-name="tag-1" unicode="&#xe838;" d="M365 792q-109 0-185-76t-76-184 76-184l159-155 286-286 365 365q-369 369-441 444-76 76-184 76z m0 105q151 0 259-107 109-113 440-444 30-31 30-74t-30-74l-365-365q-30-30-74-30t-74 30l-270 270q-8 7-18 15l-157 157q-106 106-106 257t106 258q108 107 259 107z m0-286q-32 0-56-23t-23-56 23-55 56-22 55 22 23 55-23 56-55 23z m0 51q54 0 92-38t38-92-38-92-92-38-92 38-38 92 38 92 92 38z" horiz-adv-x="1094" />

<glyph glyph-name="edit" unicode="&#xe839;" d="M966 671q24-23 24-55t-24-55l-185-185 0-469q0-21-15-36t-37-16l-676 0q-22 0-37 16t-16 36l0 677q0 21 16 37t37 15l468 0 185 185q24 24 55 24t55-24z m-523-486l327 328-112 112-328-327z m-134 69l4-86 88-4z m369-295l0 312-167-160q-20-20-63-33t-80-14l-159 0 0 159q0 41 11 82t31 61l165 167-312 0 0-574 574 0z m130 590l67 67-114 114-67-67z" horiz-adv-x="990" />

<glyph glyph-name="feather" unicode="&#xe83a;" d="M453 922q188-35 310-182t122-338q0-180-109-322t-281-188l0-64q0-21-16-36t-36-15-37 15-16 36l0 64q-172 46-281 188t-109 322q0 191 123 338t311 182l9 1z m42-921q125 43 204 150t82 240l-163-164q-8-8-19-8-16 0-24 15t5 29l196 196q-11 77-45 142l-113-114q-8-8-19-8-16 0-24 17t5 28l123 123q-97 136-260 170-164-34-260-170l122-123q13-12 5-28t-24-17q-11 0-18 8l-114 114q-34-65-45-142l196-196q13-14 5-29t-24-15q-11 0-18 8l-163 164q4-134 82-240t203-150l0 608q0 22 16 37t37 16 36-16 16-37l0-608z" horiz-adv-x="885" />

<glyph glyph-name="thumbs-up-2" unicode="&#xe83b;" d="M811 470q38-13 58-51t15-77l-35-312q-6-39-32-70t-58-44q-5-1-26-9t-29-11-30-7-45-6-56-2q-83 0-174 26t-130 56q-1 1-3 2t-4 4-3 4q-46-40-103-40-65 0-110 45t-46 111l0 313q0 65 46 110t110 46q77 0 124-63 44 44 64 85t21 108q0 54 38 92t92 39 92-39 38-92q0-94-16-188 170-17 202-30z m-655-432q22 0 37 15t16 36l0 313q0 21-16 36t-37 16-37-16-15-36l0-313q0-21 15-36t37-15z m590 7l35 312q3 12-6 16-15 4-107 15t-119 14l-69-10 16 73q25 117 25 223 0 10-8 18t-18 8-18-8-8-18q0-54-11-98t-32-78-37-51-40-43q-36-36-36-69l0-260q0-30 18-44 24-17 99-38t143-22q26 0 45 1t35 5 23 5 23 9 24 9q6 3 14 13t9 18z" horiz-adv-x="885" />

<glyph glyph-name="bookmark" unicode="&#xe83c;" d="M573 846q65 0 110-46t46-111l0-730q0-51-25-78t-58-27q-42 0-80 38l-165 166q-15 15-37 15t-36-15l-165-166q-40-39-82-38t-65 39q-16 29-16 66l0 730q0 65 46 111t110 46l417 0z m-417-105q-21 0-37-15t-15-37l0-516 127 118q55 51 133 51t134-51l127-118 0 516q0 22-16 37t-36 15l-417 0z m319-609l150-150 0 120-162 150q-40 36-98 36t-97-36l-164-150 0-120 150 150q45 45 111 45 65 0 110-45z" horiz-adv-x="729" />

<glyph glyph-name="map" unicode="&#xe83d;" d="M53-93q-23 0-38 16t-15 36l0 521q0 21 15 36l235 235q14 14 34 15t35-11l224-179 202 201q25 25 57 10t32-47l0-520q0-21-16-38l-234-233q-14-14-35-15t-35 11l-224 179-201-202q-15-15-36-15z m51 178q152 150 156 152l0 378-156-156 0-374z m215 149l202-162 0 389-208 165 0-389q1-1 3-2t3-1z m410 7l0 374q-153-151-156-154l0-376z" horiz-adv-x="834" />

<glyph glyph-name="location-outline" unicode="&#xe83e;" d="M416 741q-128 0-221-90-91-88-91-216 0-126 91-215l221-219 223 219q90 88 90 215 0 129-90 216-93 90-223 90z m0 104q174 0 295-120t122-290-122-290l-295-290-293 290q-123 120-123 290t123 290 293 120z m0-286q-52 0-91-39t-39-92 39-92q38-37 91-37 55 0 93 37 39 39 39 92t-39 92-93 39z m0 52q75 0 129-53t54-129-54-129-129-54-128 54-54 129 54 129 128 53z" horiz-adv-x="833" />

<glyph glyph-name="phone-outline" unicode="&#xe83f;" d="M964 733q31-31 52-74t27-109-12-137-74-163-149-185q-237-237-454-237-134 0-215 81l-93 93q-46 46-46 111t46 110l83 83q46 46 110 46t110-46l72-71 218 216-73 72q-46 47-46 111t46 111l83 82q45 45 111 45 65 0 110-45z m-324-62q-15-15-15-37t15-37l56-56 157 156-57 56q-15 15-36 15-22 0-37-15z m-521-595l57-56 157 156-58 56q-15 15-36 15t-36-15l-84-82q-15-15-15-37t15-37z m615 62q81 82 130 159t64 133 11 105-17 78-32 47l-156-157 15-15q15-15 15-37t-15-36l-291-292q-15-15-37-15-22 0-37 15l-15 17-156-158q50-50 141-50 174 0 380 206z" horiz-adv-x="1044" />

<glyph glyph-name="basket-1" unicode="&#xe840;" d="M950 715q23 0 39-18t14-42l-53-365q-2-18-17-31t-34-12l-590 0 9-53 528 0q22 0 37-16t16-36-16-37-37-15l-572 0q-20 0-35 13t-16 30l-98 582-72 0q-22 0-37 15t-16 37 16 36 37 16l116 0q19 0 34-12t17-32l11-60 719 0z m-60-105l-200 0 0-103 185 0z m-252 0l-157 0 0-103 157 0 0 103z m0-156l-157 0 0-104 157 0 0 104z m-208 156l-182 0 18-105q3 2 8 2l156 0 0 103z m-156-156l17-104 139 0 0 104-156 0z m416-104l164 0 14 104-178 0 0-104z m-416-390q0 78 77 78 79 0 79-78 0-79-79-79-77 0-77 79z m469 0q0 78 77 78 79 0 79-78 0-79-79-79-77 0-77 79z" horiz-adv-x="1003" />

<glyph glyph-name="resize-normal" unicode="&#xe841;" d="M110 298l255 0 0-260q0-23-12-38t-34-15-37 16-16 37l0 89-177-178q-15-15-36-15-23 0-38 15t-15 37 15 37l171 171-76 0q-21 0-36 16t-15 37 15 36 36 15z m46 105q-21 0-37 15t-15 36l0 209 209 0q21 0 36-16t16-37-16-36-36-15l-104 0 0-105q0-21-16-36t-37-15z m522-105q21 0 36-15t15-36l0-209-208 0q-21 0-37 15t-15 37 15 37 37 15l104 0 0 105q0 21 16 36t37 15z m67 454q15 15 36 15t37-15 15-37-15-37l-172-171 83 0q21 0 37-16t15-37-15-36-37-15l-260 0 0 260q0 21 15 37t37 15 37-15 15-37l0-83z" horiz-adv-x="833" />

<glyph glyph-name="stopwatch" unicode="&#xe842;" d="M855 537q83-117 83-265 0-194-138-331t-331-138-331 138-138 331q0 180 120 313t298 152l0 1-2 3 0 51-51 0q-21 0-37 16t-15 37 15 36 37 16l208 0q21 0 36-16t16-36-16-37-36-16l-52 0 0-51-1-1 0-3q156-17 270-125 1 1 3 4t3 5l27 26q15 15 36 15t37-15 15-37-15-37l-26-26q-5-5-15-10z m-386-630q151 0 258 107t107 258-107 258-258 106-258-106-107-258 107-258 258-107z m52 416l104 0q21 0 37-15t16-36-16-37-37-15l-156 0q-21 0-37 15t-16 37l0 156q0 22 16 37t37 15 37-15 15-37l0-105z m-52 262q129 0 220-92t92-221-92-221-220-92-221 92-92 221 92 221 221 92z m0-574q107 0 184 77t76 184-76 184-184 76-184-76-76-184 76-184 184-77z" horiz-adv-x="938" />

<glyph glyph-name="clock-1" unicode="&#xe843;" d="M678 350q0-21-16-36t-37-15l-156 0q-21 0-37 15t-16 36 16 37 37 16l156 0q21 0 37-16t16-37z m-209 365q-151 0-258-107t-107-258 107-257 258-107 258 107 107 257-107 258-258 107z m0 104q194 0 331-137t138-332-138-331-331-138-331 138-138 331 138 332 331 137z m52-312l0-157q0-21-15-36t-37-15-37 15-16 36l0 157q0 21 16 36t37 16 37-16 15-36z m-52 105q-108 0-184-77t-76-185 76-183 184-77 184 77 76 183-76 185-184 77z m0 51q129 0 220-91t92-222-92-221-220-91-221 91-92 221 92 222 221 91z" horiz-adv-x="938" />

<glyph glyph-name="desktop-1" unicode="&#xe844;" d="M1094 897q65 0 110-46t46-110l0-573q0-65-46-110t-110-46l-313 0 0-104 157 0q21 0 36-15t16-37-16-37-36-16l-625 0q-22 0-37 16t-16 37 16 37 37 15l156 0 0 104-313 0q-65 0-110 46t-46 110l0 573q0 65 46 110t110 46l938 0z m-365-989l0 104-208 0 0-104 208 0z m417 260l0 573q0 21-15 37t-37 15l-938 0q-21 0-37-15t-15-37l0-573q0-21 15-37t37-15l938 0q21 0 37 15t15 37z m-105 573q22 0 37-15t16-36l0-418q0-21-16-36t-37-15l-832 0q-21 0-37 15t-16 36l0 418q0 21 16 36t37 15l832 0z m0-469l0 418-832 0 0-418 832 0z" horiz-adv-x="1250" />

<glyph glyph-name="check" unicode="&#xe845;" d="M573-15l-417 0q-65 0-110 46t-46 110l0 418q0 65 46 110t110 46l260 0q22 0 37-16t16-36-16-37-37-16l-260 0q-21 0-37-15t-15-36l0-418q0-21 15-36t37-15l417 0q21 0 36 15t16 36l0 157q0 21 16 36t37 16 36-16 15-36l0-157q0-65-46-110t-110-46z m-148 218q-29 0-49 20l-138 138q-20 22-20 50t20 49 48 20 49-20l75-74 180 284q14 25 42 33t53-5 33-42-7-53l-225-364q-18-36-61-36z" horiz-adv-x="729" />

<glyph glyph-name="certificate-outline" unicode="&#xe846;" d="M1019 395q22-15 22-44t-22-43l-96-64 51-104q14-26-3-49t-41-26l-115-7-7-117q-3-25-25-40t-50-2l-104 51-65-96q-16-24-43-24-27 0-43 24l-64 96-104-51q-26-14-49 2t-26 40l-7 117-117 7q-25 3-40 25t-2 50l51 104-96 64q-24 16-24 43t24 44l96 64-51 104q-14 27 2 50t40 25l117 7 7 115q3 25 26 41t49 3l104-51 64 96q13 21 43 21t43-21l65-96 104 51q26 14 50-3t25-41l7-115 115-7q25-3 41-25t3-50l-51-104z m-210-156q-9 17-4 36t21 30l70 46-70 47q-36 26-17 66l37 75-83 5q-20 1-34 15t-15 34l-5 83-75-37q-40-19-66 17l-47 70-46-70q-26-36-66-17l-75 37-5-83q-1-20-15-34t-34-15l-84-5 38-75q9-18 3-36t-22-30l-69-47 69-46q16-11 22-30t-3-36l-38-75 84-5q20-1 33-15t15-34l6-84 75 38q10 5 22 5 29 0 44-23l46-70 47 69q11 16 30 22t36-3l75-38 5 84q1 20 15 34t34 15l82 5z" horiz-adv-x="1041" />

<glyph glyph-name="list" unicode="&#xe847;" d="M18 684q0 57 56 57t56-57q0-55-56-55t-56 55z m0-223q0 57 56 57t56-57q0-55-56-55t-56 55z m0-223q0 56 56 56t56-56q0-55-56-55t-56 55z m0-223q0 56 56 56t56-56q0-56-56-56t-56 56z m223 614l0 112 670 0 0-112-670 0z m0-223l0 112 670 0 0-112-670 0z m0-223l0 111 670 0 0-111-670 0z m0-224l0 112 670 0 0-112-670 0z" horiz-adv-x="928" />

<glyph glyph-name="tag-2" unicode="&#xe848;" d="M665 541l-10-233-242-420c-11-20-36-27-55-16l-336 195c-20 11-28 36-17 56l243 420 197 124 95-54c7 18 5 19 9 36 9 39 18 108 95 167 26 22 66 22 103 3 20-8 37-23 50-40 12-18 18-38 20-57-2-24-13-56-65-81-42-19-77-24-109-28-29-4-51-6-70-19z m-10 258c-70-53-80-115-86-152 0-6-1-10-2-15-2-6 0-10-3-18 23 15 46 17 76 19 30 4 65 9 103 26 35 15 52 38 54 63 0 29-22 59-53 76-1 1-4 3-6 4-30 15-60 15-83-3z m-218-400c42-23 97-10 121 33 20 34 14 75-10 102l-43 27c-37 12-80-4-101-40-24-43-10-97 33-122z" horiz-adv-x="816" />

<glyph glyph-name="ok-1" unicode="&#xe849;" d="M875 588l-535-600-340 338 123 124 196-195 420 457z" horiz-adv-x="875" />

<glyph glyph-name="user-2" unicode="&#xe84a;" d="M897-41l-895 0s-4 11 0 71c51 27 292 92 306 98l1 45 19 5s7 70 7 81c0 0-28 56-35 89 0 0-23 0-26 24-4 25 0 41-6 60-4 17 10 36 21 32 0 0-25 129 0 164 18 25 71 89 198 111 0 0 31 4 41-1 7-3 6-5-9-21 0 0 65-40 86-104 13-40 8-126 0-149 0 0 19 4 17-20-4-39-5-110-33-96 0 0-1-80-25-96 0 0-7-63 4-65l16 0s6-52 19-65c0 0 267-69 294-99 1-33 0-64 0-64z" horiz-adv-x="897" />

<glyph glyph-name="vector-pencil" unicode="&#xe84b;" d="M7 128q-16-16 5-57t58-79 77-59 58-4l223 224q-55 38-107 90-24 23-46 50t-34 42l-11 15z m271 237q-8 23 4 34 11 11 23 41t17 61l4 20q5 31 30 62t53 43l396 178q29 12 34 5t-18-30l-203-202q-42-43-52-53-21 10-46 6t-42-21q-23-22-23-54t23-54q23-23 54-23t55 23q17 17 21 41t-6 45q14 15 52 54l203 203q23 22 30 17t-6-34l-177-397q-12-28-43-52t-63-30l-20-4q-30-5-60-17t-41-23-35-3-45 30l-89 88q-22 22-30 46z" horiz-adv-x="889.2" />

<glyph glyph-name="at" unicode="&#xe84c;" d="M0 340q0 197 130 334 136 144 350 144 175 0 288-98 121-105 121-278 0-135-77-233-76-97-174-97-50 0-78 31-28 31-28 65 0 1 1 4t0 5q0 1 1 5t0 6q-22-45-47-69-46-46-112-46-67 0-111 52-45 52-45 145 0 109 68 203 69 95 166 95 57 0 91-34 25-28 32-62l20 75h104l-71-260q-3-12-7-28t-5-19q-3-14-3-26 0-18 11-34 11-16 35-16 48 0 96 67 48 69 48 179 0 165-131 237-80 45-183 45-188 0-302-125-102-111-102-270 0-176 120-278 107-90 260-90 105 0 195 42 50 22 103 63l13 10q4 3 10 5t14 3 15-4 13-16q6-17 3-29t-8-19l-7-7q-77-66-169-101-92-35-189-35-229 0-355 155-104 128-104 304z m340-41q0-44 18-71 18-27 52-27 59 0 97 97 37 98 37 153 0 32-17 54-17 21-47 21-58 0-99-77-41-77-41-150z" horiz-adv-x="888.7" />

<glyph glyph-name="king" unicode="&#xe84d;" d="M2 597q9 42 45 65 36 24 78 15t66-45q18-28 16-61t-20-58q22-32 45-54t41-32 32-14 26-4q2 1 19 3 21 0 36 16t22 43 11 53 3 57q-32 10-52 37t-20 62q0 43 30 73t74 30 74-30 30-73q0-35-20-62t-52-37q0-31 3-57t11-53 22-43 36-16q2 0 6-1t7-1 6-1q12 0 26 4t32 14 41 32 45 54q-19 26-21 59t17 60q23 36 65 45t78-15q37-23 46-65t-15-78q-18-28-49-40t-62-4q-29-44-54-99t-34-89l-10-33q-7-32-15-81t-16-98-10-64q-5-28-37-50t-72-34-78-11q-38 0-79 11t-72 34-37 50q-2 14-9 64t-15 99-16 80q-4 14-11 37t-32 81-55 103q-32-8-63 4t-48 40q-24 36-15 78z" horiz-adv-x="908.2" />

<glyph glyph-name="cart" unicode="&#xe84e;" d="M0 704q0 20 13 33t33 13l235 0q16 0 29-9t16-26l24-98 674 0 7 21q10 32 43 32 9 0 13-2 15-4 24-16t9-27q0-5-2-13l-118-393q-4-15-16-24t-27-9l-559 0q-16 0-28 10t-17 25l-108 438-199 0q-19 0-32 13t-14 32z m372-178l62-248 489 0 2 9 72 239-625 0z m42-484q0 38 28 65t65 27 65-27 27-65-27-65-65-27-65 27-28 65z m65 406l166 0 0-92-146 0z m245-92l1 92 162 0-24-92-139 0z m37-314q0 38 28 65t65 27 65-27 27-65-27-65-65-27-65 27-28 65z" horiz-adv-x="1120" />

<glyph glyph-name="ok-circled2" unicode="&#xe84f;" d="M0 350q0 207 147 354t353 146 354-146 146-354-146-354-354-146-353 146-147 354z m109 0q0-162 115-276t276-115 276 115 115 276-115 276-276 115-276-115-115-276z m106-51l94 92 93-94 289 291 94-93-291-289-92-94-93 94z" horiz-adv-x="1000" />

<glyph glyph-name="tags-1" unicode="&#xe850;" d="M0 460l0 240q2 27 21 46t43 19l241 0q43 0 88-28l377-414q17-23 17-48t-17-44l-280-277q-21-18-47-19t-43 19l-355 397q-45 54-45 109z m104 138q0-25 17-42 22-20 46-19t42 19q18 19 18 44t-18 43q-20 18-45 17t-43-17q-17-21-17-45z m316 165l92 0q72-4 109-45l356-397q17-21 17-48t-17-44l-280-277q-60-35-95 8l271 271q18 22 18 47t-18 45l-318 356q-24 31-71 56t-64 28z" horiz-adv-x="994" />

<glyph glyph-name="tag-3" unicode="&#xe851;" d="M0 483l0 287q2 31 24 54t52 22l287 0q88-6 133-55l426-472q19-28 19-58t-19-52l-334-334q-25-21-57-21t-52 21l-424 475q-55 64-55 133z m125 164q2-31 23-52t51-20q32 0 52 22t21 50q0 33-23 54t-50 20q-33-2-53-23t-21-51z" horiz-adv-x="941" />

<glyph glyph-name="006-cloud-computing" unicode="&#xe852;" d="M871 272c-25 0-47-16-55-39h-43v98h40c75 0 136 61 136 136 0 65-45 120-107 134-6 73-67 131-141 131-22 0-43-5-62-14-36 50-95 81-158 81-64 0-124-31-160-83-12 4-24 5-36 5-70 0-129-54-136-123-58-16-98-69-98-131 0-75 61-136 137-136h58v-98h-42c-8 23-30 39-56 39-32 0-58-26-58-59s26-58 58-58c26 0 48 16 56 39h62c10 0 19 9 19 19v118h78v-254h-62c-8 22-29 39-55 39-32 0-58-27-58-59s26-59 58-59c26 0 47 17 55 40h82c11 0 19 8 19 19v274h79v-316c-23-8-40-30-40-56 0-32 27-58 59-58s59 26 59 58c0 26-17 48-39 56v316h78v-274c0-11 8-19 19-19h101c8-23 30-40 55-40 33 0 59 27 59 59s-26 59-59 59c-25 0-47-17-55-39h-81v254h97v-118c0-10 9-19 20-19h62c8-23 30-39 55-39 32 0 59 26 59 58s-27 59-59 59z m-723-78c-10 0-19 9-19 19s9 20 19 20 20-9 20-20-9-19-20-19z m98-156c-11 0-19 8-19 19s8 20 19 20 20-9 20-20-9-19-20-19z m254-98c-11 0-19 9-19 19s8 20 19 20 20-9 20-20-9-19-20-19z m273 137c11 0 20-9 20-20s-9-19-20-19-19 8-19 19 9 20 19 20z m-683 390c0 48 34 89 81 97 10 1 17 9 17 19-1 55 43 99 97 99 13 0 25-2 37-7 9-4 19 0 24 8 28 48 79 77 135 77 55 0 107-30 135-78 6-10 18-13 28-7 17 12 36 17 57 17 58 0 105-48 102-107 0-11 8-20 18-21 50-4 89-47 89-97 0-54-44-97-97-97h-625c-54 0-98 43-98 97z m781-273c-11 0-19 9-19 19s8 20 19 20 20-9 20-20-9-19-20-19z m-77 313c25-7 47-23 60-45 6-9 18-12 27-6 9 6 12 18 6 27-19 30-48 52-83 62-10 3-21-4-24-14-3-10 4-21 14-24z" horiz-adv-x="1000" />

<glyph glyph-name="007-servers-1" unicode="&#xe853;" d="M521 267h333c12 0 21 9 21 21s-9 20-21 20h-333c-12 0-21-9-21-20s9-21 21-21z m479 187v84c0 20-6 38-16 54 0 1 0 1 0 2l-129 207c-19 31-52 49-89 49h-532c-36 0-69-18-89-49l-128-207c-1-1-1-1-1-2-10-15-16-34-16-54v-84c0-34 17-64 42-83-25-19-42-49-42-83v-84c0-34 17-64 42-83-25-19-42-49-42-83v-84c0-57 47-104 104-104h273c12 0 21 9 21 21 0 11-9 21-21 21h-273c-34 0-62 28-62 62v84c0 34 28 62 62 62h349c11 0 21 9 21 21 0 11-10 21-21 21h-349c-34 0-62 28-62 62v84c0 34 28 62 62 62h792c34 0 62-28 62-62v-84c0-9-2-18-6-27-5-10-1-23 9-28 11-5 23-1 28 10 7 14 11 30 11 45v84c0 34-17 64-42 83 25 19 42 49 42 83z m-819 325c11 18 31 29 53 29h532c22 0 42-11 53-29l86-138c-3 0-6 1-9 1h-792c-3 0-6-1-9-1l86 138z m777-325c0-34-28-62-62-62h-792c-34 0-62 28-62 62v84c0 34 28 62 62 62h792c34 0 62-28 62-62v-84z m-875-458c0-35 28-63 63-63 34 0 62 28 62 63 0 34-28 62-62 62-35 0-63-28-63-62z m84 0c0-12-10-21-21-21s-21 9-21 21c0 11 9 21 21 21s21-10 21-21z m687 146c-4 0-7 0-11-1-35 52-93 84-155 84-97 0-177-74-187-169-48-9-84-51-84-102 0-57 46-104 104-104h333c81 0 146 65 146 146s-65 146-146 146z m0-250h-333c-35 0-63 28-63 62s28 63 63 63c11 0 21 9 21 21 0 80 65 145 146 145 52 0 100-28 126-75 4-7 13-11 22-10 6 1 12 2 18 2 58 0 104-47 104-104s-46-104-104-104z m0 666h-333c-12 0-21-9-21-20s9-21 21-21h333c12 0 21 9 21 21s-9 20-21 20z m0-83h-333c-12 0-21-9-21-21s9-21 21-21h333c12 0 21 10 21 21s-9 21-21 21z m-708 83c-35 0-63-28-63-62s28-63 63-63c34 0 62 28 62 63 0 34-28 62-62 62z m0-83c-12 0-21 9-21 21s9 21 21 21 21-10 21-21-10-21-21-21z m-63-229c0-35 28-63 63-63 34 0 62 28 62 63 0 34-28 62-62 62-35 0-63-28-63-62z m84 0c0-12-10-21-21-21s-21 9-21 21 9 21 21 21 21-10 21-21z" horiz-adv-x="1000" />

<glyph glyph-name="008-shopping-cart" unicode="&#xe854;" d="M322 264h0c0 0 0 0 0 0h532c13 0 24 9 28 21l117 411c2 8 1 18-5 25-5 8-14 12-23 12h-716l-21 94c-3 14-15 23-29 23h-176c-16 0-29-13-29-29s13-30 29-30h153c3-16 100-451 105-476-31-13-53-44-53-80 0-49 40-88 88-88h532c16 0 29 13 29 29s-13 30-29 30h-532c-16 0-29 13-29 29 0 16 13 29 29 29z m610 410l-101-351h-485l-78 351z m0 0m-639-615c0-48 39-88 88-88s88 40 88 88-40 88-88 88-88-40-88-88z m88 29c16 0 29-13 29-29s-13-29-29-29-29 13-29 29 13 29 29 29z m0 0m326-29c0-48 40-88 88-88s88 40 88 88-40 88-88 88-88-40-88-88z m88 29c16 0 29-13 29-29s-13-29-29-29-29 13-29 29 13 29 29 29z m0 0" horiz-adv-x="1000" />

<glyph glyph-name="009-shopping-cart-1" unicode="&#xe855;" d="M319 72c-58 0-104-47-104-104 0-58 46-105 104-105 58 0 104 47 104 105 0 57-46 104-104 104z m0-162c-32 0-58 26-58 58 0 32 26 58 58 58 32 0 58-26 58-58 0-32-26-58-58-58z m441 162c-58 0-105-47-105-104 0-58 47-105 105-105s104 47 104 105c0 57-46 104-104 104z m0-162c-32 0-58 26-58 58 0 32 26 58 58 58s58-26 58-58c0-32-26-58-58-58z m235 771c-5 6-11 9-18 10l-755 10-21 64c-15 42-55 71-100 72h-78c-13 0-23-11-23-24s10-23 23-23h78c25 0 47-16 56-40l147-445-12-26c-13-34-9-71 11-101 19-30 52-48 87-49h451c13 0 23 10 23 23 0 13-10 23-23 23h-451c-20 1-38 11-49 28-10 17-12 38-6 56l10 21 488 51c54 6 98 45 110 97l56 234c2 6 1 14-4 19z m-97-242c-8-34-36-59-71-62l-482-50-108 328 711-11-50-205z" horiz-adv-x="1000" />

<glyph glyph-name="011-mail" unicode="&#xe856;" d="M949 683h-898c-28 0-51-23-51-51v-564c0-28 23-51 51-51h898c28 0 51 23 51 51v564c0 28-23 51-51 51z m-19-38l-400-300c-8-6-19-9-30-9-11 0-22 3-29 9l-400 300h859z m-214-320l218-269c0 0 0-1 1-1h-869c0 0 0 1 0 1l218 269c7 8 6 20-3 27-8 7-20 6-27-3l-215-266v538l408-307c16-11 35-16 53-16 19 0 37 5 53 16l409 307v-538l-216 266c-7 9-19 10-27 3-9-6-10-19-3-27z" horiz-adv-x="1000" />

<glyph glyph-name="012-email" unicode="&#xe857;" d="M792 432v210c0 46-38 83-84 83h-625c-46 0-83-37-83-83v-417c0-46 37-83 83-83h468c27-96 115-167 220-167 40 0 80 11 114 31 10 5 14 18 8 28-6 10-18 14-28 8-29-17-61-25-94-25-104 0-188 84-188 187s84 188 188 188 187-84 187-188v-21c0-23-18-41-41-41-23 0-42 18-42 41v84c0 11-9 21-21 21-5 0-10-3-14-6-19 16-43 26-69 26-58 0-104-46-104-104s46-104 104-104c31 0 59 14 78 36 15-22 40-36 68-36 46 0 83 37 83 83v21c0 120-92 218-208 228z m-709 251h625c1 0 2 0 3 0l-298-245c-11-6-26-5-33-1l-299 246c1 0 2 0 2 0z m667-251c-117-10-208-108-208-228 0-7 0-14 1-21h-460c-23 0-41 19-41 42v417c0 6 1 11 3 16l311-254c12-8 26-12 40-12 14 0 27 4 39 11 1 1 2 1 3 2l309 253c2-5 3-10 3-16v-210z m21-290c-35 0-63 28-63 62 0 35 28 63 63 63s62-28 62-63c0-34-28-62-62-62z" horiz-adv-x="1000" />

<glyph glyph-name="013-home" unicode="&#xe858;" d="M989 444l-474 347c-9 6-21 6-30 0l-474-347c-12-9-15-25-6-37s25-14 36-5l459 336 459-336c4-4 10-5 15-5 8 0 16 3 21 10 9 12 6 28-6 37z m-125-48c-15 0-26-12-26-26v-414h-208v226c0 72-58 130-130 130s-130-58-130-130v-226h-208v414c0 14-11 26-26 26s-26-12-26-26v-440c0-14 12-26 26-26h260c14 0 25 11 26 24 0 1 0 1 0 2v252c0 43 35 78 78 78s78-35 78-78v-252c0-1 0-1 0-2 1-13 12-24 26-24h260c14 0 26 12 26 26v440c0 14-12 26-26 26z" horiz-adv-x="1000" />

<glyph glyph-name="014-house" unicode="&#xe859;" d="M992 383l-184 158c0 1 0 2 1 3v206c-1 13-10 23-23 23h-103c-11 0-21-11-21-23v-85l-148 126c-8 7-20 7-28 0l-478-407c-10-8-11-22-3-31s21-10 30-3c1 1 1 1 1 1l464 395 166-141 100-85 199-169c9-8 22-7 30 2 8 9 7 23-3 30z m-227 194l-60 51v102h60v-153z m132-237l-60 52-323 275c-8 7-20 7-28 0l-323-275-60-52c-9-8-10-22-2-31 7-9 20-10 29-2l0 0 27 23v-404c1-12 11-22 23-22h640c13 0 22 10 23 22v404l27-23c3-3 8-5 13-5 7 0 13 3 17 7 8 10 6 23-3 31z m-311-393h-172v233h172v-233z m43 0v254c0 12-8 22-20 22h-217c-12 0-21-10-21-22v-254h-170v420l299 255 300-255v-420h-171z" horiz-adv-x="1000" />

<glyph glyph-name="016-image" unicode="&#xe85a;" d="M950 717h-900c-28 0-50-23-50-50v-634c0-27 22-50 50-50h900c28 0 50 23 50 50v248c0 0 0 0 0 0v386c0 27-22 50-50 50z m-900-700c-9 0-17 7-17 16v207l155 155c7 7 17 7 24 0l165-164-214-214h-113z m917 16c0-9-8-16-17-16h-740l495 495c6 6 17 6 23 0l239-238v-241z m0 288l-215 214c-19 19-52 19-71 0l-281-281-165 165c-18 19-51 19-70 0l-132-132v380c0 9 8 16 17 16h900c9 0 17-7 17-16v-346z m-550 279c-55 0-100-45-100-100s45-100 100-100c55 0 100 45 100 100s-45 100-100 100z m0-167c-37 0-67 30-67 67s30 67 67 67c36 0 66-30 66-67s-30-67-66-67z" horiz-adv-x="1000" />

<glyph glyph-name="017-camera" unicode="&#xe85b;" d="M621 436c-33 0-65-6-95-19-10-4-14-15-10-25 4-10 15-15 25-11 26 11 53 16 80 16 114 0 207-93 207-207s-93-207-207-207-207 93-207 207c0 28 5 55 16 80 4 10-1 21-11 25-9 5-21 0-25-10-13-30-19-62-19-95 0-135 110-246 246-246s246 111 246 246-110 246-246 246z m0-406c88 0 160 72 160 160s-72 160-160 160-160-71-160-160 72-160 160-160z m0 281c67 0 121-54 121-121s-54-121-121-121-121 54-121 121 54 121 121 121z m280 219h-59l-69 115c-3 6-10 10-16 10h-271c-7 0-14-4-17-10l-68-115h-112v23c0 39-31 71-70 71s-71-32-71-71v-23h-49c-55 0-99-44-99-99v-482c0-54 44-99 99-99h802c55 0 99 45 99 99v482c0 55-44 99-99 99z m-404 86h248l51-86h-350z m-309-63c0 18 14 32 31 32s31-14 31-32v-23h-62z m773-604c0-33-27-60-60-60h-802c-33 0-60 27-60 60v482c0 33 27 60 60 60h802c33 0 60-27 60-60v-482z m-340 279c21 0 38-17 38-38 0-11 9-19 20-19s19 8 19 19c0 43-34 77-77 77-11 0-19-8-19-19s8-20 19-20z m0 478c11 0 20 9 20 20v104c0 11-9 20-20 20s-19-9-19-20v-104c0-11 8-20 19-20z m93 0c5 0 10 2 14 6l72 72c7 7 7 20 0 27-8 8-20 8-28 0l-72-71c-7-8-7-20 0-28 4-4 9-6 14-6z m-200 6c4-4 9-6 14-6s10 2 14 6c8 8 8 20 0 28l-72 71c-7 8-20 8-27 0-8-7-8-20 0-27z m-244-342h-102c-11 0-20-9-20-20 0-10 9-19 20-19h102c10 0 19 9 19 19s-9 20-19 20z m191-39c5 0 10 2 14 6s5 8 5 13c0 5-2 11-5 14-4 4-9 6-14 6s-10-2-14-6c-4-3-6-9-6-14 0-5 2-10 6-13 4-4 9-6 14-6z" horiz-adv-x="1000" />

<glyph glyph-name="018-graphic-design" unicode="&#xe85c;" d="M58 345a16 16 0 0 1-27-11v-437a16 16 0 0 1 16-16h437a16 16 0 0 1 11 27z m5-433v385l384-385z m78 63h125a16 16 0 0 1 11 27l-125 125a16 16 0 0 1-27-11v-125a16 16 0 0 1 16-16z m15 103l72-72h-72z m47 678h31v-31h-31z m63 0h31v-31h-31z m62 0h31v-31h-31z m25-220a15 15 0 0 1-9-14v-172a16 16 0 0 1 9-14l141-63a16 16 0 0 1 12 0v0l141 63a16 16 0 0 1 9 14v172a15 15 0 0 1-9 14v0l-141 63a16 16 0 0 1-12 0l-141-63z m131-224l-109 48v138l109-49z m141 48l-109-48v137l109 49z m-125 207l102-45-102-45-102 45z m-16-342h32v-78h-32z m0 484h32v-78h-32z m-256-154l13 28 65-31-13-29z m465-3l66 31 13-28-65-31z m-465-250l65 31 13-28-65-31z m725-202h-94v244l92 91a60 60 0 1 1-84 85l-8-7v134a16 16 0 0 1-4 11l-156 156a16 16 0 0 1-11 5h-485a63 63 0 0 1-62-63v-453h31v453a31 31 0 0 0 31 32h469v-94a63 63 0 0 1 62-63h94v-149l-245-246a16 16 0 0 1-5-8l-15-78a16 16 0 0 1 18-18l78 15a16 16 0 0 1 8 5l161 160v-212h-312a16 16 0 0 1-16-16v-46h-78v-32h78v-47a16 16 0 0 1 16-15h437a16 16 0 0 1 16 15v125a16 16 0 0 1-16 16z m-250 594v71l103-102h-72a31 31 0 0 0-31 31z m-87-469l243 244 41-41-244-243z m293 281a29 29 0 0 0 20-48l-7-8-40 41 7 7a28 28 0 0 0 20 8z m-306-313l22-21-27-5z m335-218h-407v94h32v-31h31v31h31v-31h31v31h32v-31h31v31h31v-31h31v31h32v-31h31v31h31v-31h31v31h32z" horiz-adv-x="1000" />

<glyph glyph-name="019-monitor" unicode="&#xe85d;" d="M930 756h-860a55 55 0 0 1-54-54v-579a55 55 0 0 1 54-54h317l-9-47h-65a16 16 0 0 1-16-16v-47a16 16 0 0 1 16-15h375a16 16 0 0 1 15 15v47a16 16 0 0 1-15 16h-66l-9 47h317a55 55 0 0 1 54 54v579a55 55 0 0 1-54 54z m-258-765v-16h-344v16z m-262 31l9 47h162l9-47z m543 101a24 24 0 0 0-23-23h-860a24 24 0 0 0-23 23v40h906z m0 71h-906v508a24 24 0 0 0 23 23h860a24 24 0 0 0 23-23z m-437-47h-32a16 16 0 0 1 0-31h32a16 16 0 0 1 0 31z" horiz-adv-x="1000" />

<glyph glyph-name="022-smartphone" unicode="&#xe85e;" d="M711 834h-422a55 55 0 0 1-55-54v-860a55 55 0 0 1 55-54h422a55 55 0 0 1 55 54v860a55 55 0 0 1-55 54z m-153-31l-8-31h-100l-8 31z m176-883a24 24 0 0 0-23-23h-422a24 24 0 0 0-23 23v860a24 24 0 0 0 23 23h121l12-51a16 16 0 0 1 16-11h125a16 16 0 0 1 15 12l12 50h121a24 24 0 0 0 23-23z m-187 24h-94a16 16 0 0 1 0-32h94a16 16 0 0 1 0 32z" horiz-adv-x="1000" />

<glyph glyph-name="024-responsive-1" unicode="&#xe85f;" d="M125 69h-47a16 16 0 0 1 0-31h47a16 16 0 0 1 0 31z m63 0h-16a16 16 0 0 1 0-31h16a16 16 0 0 1 0 31z m734 453h-31v125a63 63 0 0 1-63 62h-656a63 63 0 0 1-63-62v-281h-31a63 63 0 0 1-62-63v-250a63 63 0 0 1 62-62h156a63 63 0 0 1 63 62v47h136l-8-31h-50a16 16 0 0 1-16-16v-47a16 16 0 0 1 16-15h547a63 63 0 0 1 62 62v406a63 63 0 0 1-62 63z m-656-469a31 31 0 0 0-32-31h-156a31 31 0 0 0-31 31v250a31 31 0 0 0 31 31h20l12-36a16 16 0 0 1 15-10h63a16 16 0 0 1 14 10l12 36h20a31 31 0 0 0 32-31z m-135 281h50l-5-15h-40z m166-203v47h281v-47z m281-31v-31h-3l-8 31z m-35-31h-85l7 31h70z m-152-47v16h189a62 62 0 0 1 7-16z m187 437v-250h-281v94a63 63 0 0 1-63 63h-93v281a31 31 0 0 0 31 31h656a31 31 0 0 0 31-31v-125h-218a63 63 0 0 1-63-63z m375-406a31 31 0 0 0-31-31h-281a31 31 0 0 0-32 31v406a31 31 0 0 0 32 32h281a31 31 0 0 0 31-32z m-31 422h-281a16 16 0 0 1-16-16v-359a16 16 0 0 1 16-16h281a16 16 0 0 1 16 16v359a16 16 0 0 1-16 16z m-16-359h-250v328h250z" horiz-adv-x="1000" />

<glyph glyph-name="025-heart" unicode="&#xe860;" d="M725 850c-90 0-173-44-225-117-51 73-135 117-225 117-146 0-275-136-275-292 0-151 86-307 247-451 75-66 157-124 245-172 5-2 11-2 16 0 88 48 170 106 245 172 162 144 247 300 247 451 0 156-128 292-275 292z m-225-881c-61 34-467 270-467 589 0 138 113 259 242 259 87 0 168-47 211-123 3-5 8-8 14-8s11 3 15 8c42 76 123 123 210 123 129 0 242-121 242-259 0-319-406-555-467-589z m0 0" horiz-adv-x="1000" />

<glyph glyph-name="026-infinity" unicode="&#xe861;" d="M771 597c-6 0-12 0-16 0-2 0-196 15-274-241-68-224-225-214-234-213-3 0-6 0-9 0-111 5-198 96-198 207 0 114 93 207 207 207 71 0 136-35 175-95l33 22c-45 71-123 113-208 113-136 0-247-111-247-247 0-133 104-241 236-247 4 0 8 0 10 0 0 0 2 0 6 0 35 0 198 12 267 241 68 224 226 214 234 213 5 0 10 0 15 0 108-8 192-99 192-207 0-114-93-207-207-207-71 0-136 35-175 95l-33-22c46-71 123-113 208-113 136 0 247 111 247 247 0 129-100 237-229 247z" horiz-adv-x="1000" />

<glyph glyph-name="027-configuration" unicode="&#xe862;" d="M772 376h-149c-54 0-98 44-98 98v148c0 54 44 98 98 98h149c53 0 97-44 97-98v-148c0-54-44-98-97-98z m-149 305c-32 0-58-27-58-59v-148c0-33 26-59 58-59h149c32 0 58 26 58 59v148c0 32-26 59-58 59z m149-701h-149c-54 0-98 44-98 98v149c0 53 44 97 98 97h149c53 0 97-44 97-97v-149c0-54-44-98-97-98z m-149 305c-32 0-58-26-58-58v-149c0-32 26-59 58-59h149c32 0 58 27 58 59v149c0 32-26 58-58 58z m-246-305h-148c-54 0-98 44-98 98v149c0 53 44 97 98 97h148c54 0 98-44 98-97v-149c0-54-44-98-98-98z m-148 305c-33 0-59-26-59-58v-149c0-32 26-59 59-59h148c32 0 59 27 59 59v149c0 32-27 58-59 58z m74 91c-95 0-172 77-172 172s77 172 172 172 172-77 172-172-77-172-172-172z m0 305c-73 0-133-60-133-133s60-133 133-133 133 60 133 133-60 133-133 133z" horiz-adv-x="1000" />

<glyph glyph-name="028-user" unicode="&#xe863;" d="M324 467c0-97 79-176 176-176s176 79 176 176-79 176-176 176-176-79-176-176z m313 0c0-75-62-136-137-136s-137 61-137 136 62 137 137 137 137-61 137-137z m-137-617c277 0 500 225 500 500 0 92-25 181-72 259-6 10-18 13-27 7-9-6-12-18-7-27 44-72 67-154 67-239 0-134-56-258-155-345-30 142-156 247-306 247s-276-105-306-247c-99 87-155 211-155 345 0 254 207 461 461 461 104 0 201-33 283-97 8-6 20-5 27 4s5 21-3 27c-89 69-195 105-307 105-134 0-259-52-354-146-94-95-146-220-146-354 0-276 224-500 500-500z m0 363c138 0 253-101 271-236-79-58-172-88-271-88-98 0-192 30-271 88 18 135 133 236 271 236z" horiz-adv-x="1000" />

<glyph glyph-name="030-twitter" unicode="&#xe864;" d="M994 666c-5 5-13 7-20 5l-34-12c20 24 34 49 42 73 4 8 2 15-3 20-5 5-14 7-20 4-48-21-89-38-123-48 0-2-1 0-3 0-27 15-93 49-141 49-120-1-217-103-217-227v-7c-177 34-273 85-379 195l-17 17-10-20c-57-110-17-211 49-278-30 5-50 15-69 30-7 5-15 7-24 2-7-4-10-14-8-22 23-80 83-145 147-184-30 0-56 4-81 21-7 3-17 3-24-2s-10-13-7-22c31-87 90-132 185-144-49-29-113-53-214-55-10 0-18-6-22-15-3-10 0-18 7-25 61-50 197-78 365-78 299 0 543 266 543 594v5c38 18 68 54 83 103 2 7 0 16-5 21z m-102-97l-10-3v-29c0-309-229-560-509-560-154 0-258 25-314 52 117 9 185 46 238 87l42 30h-51c-97 0-156 27-190 92 31-10 63-10 99-8 13 1 27 1 40 1l5 34c-64 19-140 77-178 155 34-16 71-19 105-19h53l-42 30c-36 26-141 116-90 245 108-107 212-156 399-190l20-4v48c0 105 81 192 183 193 39 2 104-34 122-44 11-5 21-6 31-3 25 8 56 20 90 34-15-26-36-49-63-71-7-6-8-16-5-24 3-9 14-12 22-9l66 22c-12-22-30-47-63-59z" horiz-adv-x="1000" />

<glyph glyph-name="032-facebook-app-symbol" unicode="&#xe865;" d="M577-150v456h154l22 178h-176v113c0 52 15 87 89 87l94 0v159c-17 2-72 7-137 7-136 0-229-83-229-235v-131h-154v-178h154v-456h183z" horiz-adv-x="1000" />

<glyph glyph-name="033-facebook-circular-logo" unicode="&#xe866;" d="M500 848c-276 0-500-224-500-500 0-248 180-453 417-493v389h-121v139h121v103c0 120 73 185 179 185 51 0 95-4 108-5v-125l-74 0c-58 0-69-28-69-68v-90h138l-18-139h-120v-392c247 30 439 241 439 496 0 276-224 500-500 500z" horiz-adv-x="1000" />

<glyph glyph-name="034-facebook" unicode="&#xe867;" d="M883 850h-766c-64 0-117-53-117-117v-766c0-64 53-117 117-117h766c64 0 117 53 117 117v766c0 64-53 117-117 117z m39-883c0-21-18-39-39-39h-223v319h121l20 121h-141v84c0 33 26 58 59 58h80v121h-80c-100 0-180-80-180-180v-83h-117v-121h117v-319h-422c-21 0-39 18-39 39v766c0 21 18 39 39 39h766c21 0 39-18 39-39v-766z" horiz-adv-x="1000" />

<glyph glyph-name="035-maps-and-flags" unicode="&#xe868;" d="M500 850c-200 0-362-162-362-362 0-248 324-612 338-627 13-15 35-15 48 0 14 15 338 379 338 627 0 200-162 362-362 362z m0-544c-100 0-182 81-182 182s82 182 182 182 182-82 182-182-81-182-182-182z" horiz-adv-x="1000" />

<glyph glyph-name="036-placeholder" unicode="&#xe869;" d="M502 772c-11 0-20-9-20-19 0-11 9-20 20-20 10 0 19 8 19 19 0 11-8 20-19 20z m-1-117c-75 0-137-61-138-136 0-75 61-137 136-138 0 0 1 0 1 0 75 0 136 61 137 136 0 75-61 137-136 138z m-1-235c0 0 0 0-1 0-54 1-97 45-97 99 1 53 45 97 98 97 0 0 1 0 1 0 54-1 97-45 97-99-1-53-44-97-98-97z m85 337c-10 4-21-2-25-12-3-10 2-21 12-25 86-30 144-112 143-204 0-10 8-19 19-19 0 0 0 0 0 0 11 0 20 8 20 19 1 108-67 205-169 241z m35-642c130 167 211 254 212 401 1 184-148 334-332 334-182 0-331-147-332-329-1-151 82-238 212-406-130-20-212-68-212-128 0-40 37-76 104-101 61-23 142-36 228-36s167 13 228 36c67 25 104 61 104 101 0 59-82 108-212 128z m-413 405c1 161 133 291 293 291 162 0 294-133 293-295-1-139-87-225-225-404-24-32-47-62-68-92-21 30-43 60-68 92-143 187-226 266-225 408z m293-631c-168 0-293 52-293 98 0 34 75 77 201 92 28-36 52-70 76-104 4-5 10-8 16-8 0 0 0 0 0 0 6 0 12 3 16 8 24 34 49 68 76 104 126-15 201-58 201-92 0-46-125-98-293-98z" horiz-adv-x="1000" />

<glyph glyph-name="037-pin" unicode="&#xe86a;" d="M500 850c-204 0-369-166-369-369 0-67 30-140 31-143 10-23 29-58 43-79l253-384c10-16 26-25 42-25s32 9 42 25l253 384c14 21 33 56 43 79 1 3 31 76 31 143 0 203-165 369-369 369z m298-495c-9-20-26-54-39-73l-253-383c-5-8-7-8-12 0l-253 383c-12 19-30 53-39 73 0 1-28 68-28 126 0 179 146 326 326 326 180 0 326-147 326-326 0-59-28-125-28-126z m-298 321c-108 0-196-88-196-195 0-108 88-196 196-196 108 0 196 88 196 196 0 107-88 195-196 195z m0-347c-84 0-152 68-152 152s68 152 152 152 152-68 152-152-68-152-152-152z" horiz-adv-x="1000" />

<glyph glyph-name="068-businessman" unicode="&#xe86b;" d="M801 333c-8 1-16-4-17-12-2-8 4-15 11-17 83-15 143-87 143-171 0-85-60-156-140-172-1 0-1 0-1 0-11-2-22-3-33-3-96 0-174 78-174 175 0 85 61 156 142 171 8 2 14 9 12 17-1 8-9 13-17 12-47-9-87-33-116-66l-92 35v51c33 25 56 63 61 106 40 2 69 33 69 71 0 17-7 33-18 46v65c0 115-94 209-209 209s-210-94-210-209v-66c-11-13-18-29-18-45 0-38 30-69 69-71 5-43 28-83 64-109v-48l-206-80c0 0 0 0 0 0-3-2-89-38-89-137v-202c0-18 15-33 34-33 9 0 706 0 716 0 18 0 33 15 33 33v52c87 23 153 103 153 198 0 98-71 182-167 200z m-239-79l-52-106c-1 1-14 10-65 46 37 46 24 31 64 80l53-20z m-101-107l-15-23h-45l-15 23 37 26 38-26z m-104 150v37c19-9 43-14 67-14 23 0 45 5 66 15v-38l-67-82-66 82z m248 202c-6-6-14-9-23-10v82c37-4 50-49 23-72z m-343-10c-23 2-38 20-38 41 0 20 18 37 38 40v-81z m0 111c-7-1-15-3-21-5v46c0 99 81 180 181 180 99 0 180-81 180-180v-45c-7 2-13 4-20 4 0 18 2 13-49 67-4 5-9 11-19 13-7 2-15 1-21-4-58-37-130-58-200-54-16 1-28-8-31-22z m29-122c0 12 0 102 0 115 75-5 153 17 217 58 26-28 40-43 44-48 0-146 0-120 0-128-2-69-58-125-128-125-78 0-133 60-133 128z m46-204l65-80c-21-15-54-38-65-46l-52 106 52 20z m-140-395v175c0 8-6 14-14 14s-15-6-15-14v-175h-102c-3 0-4 2-4 4v202c0 79 66 108 70 110l125 48 55-110c0 0 0 0 0 0 4-7 10-12 18-14 14-4 23 4 32 11l16-24-39-227h-142z m453 0h-142l-13 78c-2 8-9 13-17 12-8-1-14-9-12-17l12-73h-109l36 216h37l12-74c1-8 9-14 17-12 8 1 13 8 12 16l-14 81 16 24 9-7c14-10 33-5 41 10 0 0 0 0 0 0l55 110 2-1c-20-32-32-70-32-109 0-70 36-132 90-169v-85z m135 4c0-2-1-4-3-4h-103v68c26-12 55-18 85-18 7 0 14 0 21 1v-47z m48 293c-5 6-15 6-20 0l-58-56-24 24c-6 5-15 5-21-1-6-5-5-15 0-20l35-34c3-3 6-4 10-4 4 0 7 1 10 4l68 66c6 6 6 15 0 21z m-69 109c-84 0-152-69-152-152s68-153 152-153 152 69 152 153c0 83-68 152-152 152z m0-275c-68 0-123 55-123 123 0 67 55 122 123 122 68 0 123-55 123-122 0-68-55-123-123-123z" horiz-adv-x="1000" />

<glyph glyph-name="066-experience" unicode="&#xe86c;" d="M498 536c30 0 58 15 80 42 20 25 31 56 31 86 0 59-48 104-111 104s-111-45-111-104c0-30 11-61 31-86 22-27 51-42 80-42z m0 200c46 0 79-30 79-72 0-53-43-95-79-95-44 0-79 52-79 95 0 42 33 72 79 72z m-131-354l-12-162a16 16 0 0 1 15-17h1a16 16 0 0 1 16 15l12 161a16 16 0 1 1-32 3z m350-179a17 17 0 0 1 15 18s-17 122-20 163c-4 74-49 133-120 144-24 3-69 6-93 6a927 927 0 0 1-95-6 137 137 0 0 1-85-46c-23-27-33-60-35-98-3-41-18-163-18-163a16 16 0 1 1 32-4s16 124 18 165c3 59 38 106 92 114a886 886 0 0 0 91 6c22 0 66-3 88-6a108 108 0 0 0 66-36c17-20 25-48 27-78 2-41 20-165 20-165a17 17 0 0 1 17-14z m-105 194a16 16 0 0 1-15-18l11-161a16 16 0 0 1 16-15h1a16 16 0 0 1 15 17l-11 162a16 16 0 0 1-17 15z m-11-340l77 76a16 16 0 0 1-9 27l-107 16-47 97a16 16 0 0 1-29 0l-48-97-107-16a16 16 0 0 1-9-27l77-76-18-106a16 16 0 0 1 23-17l96 50 96-50a16 16 0 0 1 7-2 16 16 0 0 1 16 19z m-108-41c-19-9-75-39-75-39l14 83a16 16 0 0 1-4 15l-60 58 83 12a16 16 0 0 1 12 9l37 75 37-75a16 16 0 0 1 12-9l83-12-60-58a16 16 0 0 1-4-15l14-83s-56 30-75 39a16 16 0 0 1-14 0z m450 95l-79 12-35 71a16 16 0 0 1-29 0l-35-71-78-12a16 16 0 0 1-9-27l57-55-14-78a16 16 0 0 1 24-17l70 36 70-36a16 16 0 0 1 7-2 16 16 0 0 1 16 19l-13 78 57 55a16 16 0 0 1-9 27z m-136-108c-12-6-48-26-48-26l9 55a16 16 0 0 1-5 14l-39 38 54 8a16 16 0 0 1 13 9l24 49 24-49a16 16 0 0 1 12-9l55-8-40-38a16 16 0 0 1-4-14l9-55s-36 20-48 26a16 16 0 0 1-16 0z m-494 108l-78 12-35 71a16 16 0 0 1-29 0l-35-71-79-12a16 16 0 0 1-9-27l57-55-13-78a16 16 0 0 1 23-17l70 36 70-36a16 16 0 0 1 8-2 16 16 0 0 1 16 19l-14 78 57 55a16 16 0 0 1-9 27z m-135-108l-49-26 9 55a16 16 0 0 1-4 14l-40 38 55 8a16 16 0 0 1 12 9l24 49 25-49a16 16 0 0 1 12-9l54-8-39-38a16 16 0 0 1-5-14l9-55-48 26a14 14 0 0 1-15 0z" horiz-adv-x="1000" />

<glyph glyph-name="065-delivered" unicode="&#xe86d;" d="M866 831c-8 3-17 0-20-8-3-7 1-16 8-19 68-29 119-97 119-179 0-178-222-263-340-129-67 75-66 192 8 266 44 44 103 63 160 56 8-1 16 5 17 13 1 8-5 15-13 16-193 23-321-194-210-351-12 0-296 0-309 0-14 0-25-11-25-25v-191l-27-54c-6-10-14-18-25-22 0 23-18 38-38 38h-56c-20 0-38-15-38-39h-37c-22 0-40-18-40-40v-18c0-8 7-15 15-15 8 0 15 7 15 15v18c0 6 4 11 10 11h37v-204h-37c-6 0-10 4-10 10v106c0 8-7 15-15 15-8 0-15-7-15-15v-106c0-22 18-40 40-40h37c0-24 18-39 38-39h56c18 0 32 12 37 27 18-4-32-2 628-2 15 0 27 12 27 27v464c183 75 186 337 3 414z m-686-758c0-16 0-21 0-21v-113c0-5-4-9-9-9h-56c-5 0-9 4-9 9 0 12 0 253 0 266 0 4 4 8 9 8h56c5 0 9-4 9-8z m269 394h112v-116l-43 34c-8 6-18 6-25 0l-44-34z m-3-512c-234 0-223-1-237 4v214c22 5 40 18 52 42 3 7 28 54 34 66 5 10 32-15 19-40l-14-28c-10-19 4-42 25-42l185 1c9 0 17-8 17-17 0-8-8-15-16-15h-116c-8 0-14-7-14-15 0-8 6-15 14-15 1 0 172 0 173 0 7 0 15-7 16-13 2-11-4-19-15-19 0 0-23 0-175 0-8 0-15-6-15-15 0-8 7-14 15-14 0 0 148 0 148 0 14-1 20-18 11-28-3-3-7-4-12-4-113 0-81 0-161 0-8 0-15-7-15-15s7-15 15-15c70 0 71 2 77-5 10-10 3-27-11-27z m388 0h-85v283c0 9-6 15-15 15-8 0-14-6-14-15v-283h-232c4 11 4 22 0 32l53 0c33 0 55 34 42 64 33 10 41 51 17 75-16 15-32 14-47 14 12 30-11 61-43 61l-183 0 13 26c23 44-16 93-49 85v155h129v-135c0-11 9-20 20-20 9 0 7 0 65 45 58-44 56-45 66-45 11 0 20 9 20 20v135h29c28-29 62-48 100-58v-112c0-8 6-14 14-14 9 0 15 6 15 14v106c28-4 57-2 85 5z m0 0m-153 673c-5 6-15 6-21 1-6-6-6-15-1-21l59-67c12-13 32-13 43 0l137 153c5 6 4 15-2 21-6 5-15 5-20-1l-136-153z m0 0" horiz-adv-x="1000" />

<glyph glyph-name="063-fast-time" unicode="&#xe86e;" d="M76 559h154c9 0 15 6 15 14s-6 15-15 15h-154c-8 0-15-7-15-15s7-14 15-14z m149-71h-61c-8 0-15-6-15-15s7-14 15-14h61c8 0 15 6 15 14s-7 15-15 15z m-210-101h149c8 0 15 6 15 14s-7 15-15 15h-149c-8 0-15-7-15-15s7-14 15-14z m230-260c0 8-6 14-15 14h-154c-8 0-15-6-15-14s7-15 15-15h154c9 0 15 7 15 15z m-20 114h-61c-8 0-15-6-15-14s7-15 15-15h61c8 0 15 7 15 15s-7 14-15 14z m-46 58c0 8-7 15-15 15h-149c-8 0-15-7-15-15s7-15 15-15h149c8 0 15 7 15 15z m445 227c8 0 15 7 15 15v22c0 8-7 15-15 15s-15-7-15-15v-22c0-8 7-15 15-15z m161-15c-6 6-15 6-21 0l-15-16c-6-5-6-15 0-20 5-6 15-6 20 0l16 15c6 6 6 15 0 21z m30-146c-8 0-15-7-15-15s7-15 15-15h22c8 0 15 7 15 15s-7 15-15 15z m-46-139c-5 5-15 5-20 0-6-6-6-15 0-21l15-16c6-6 15-6 21 0 6 6 6 15 0 21z m-160-67v-22c0-8 7-15 15-15s15 7 15 15v22c0 8-7 15-15 15s-15-7-15-15z m-130 67l-16-16c-6-6-6-15 0-21 6-6 15-6 21 0l16 16c5 6 5 15 0 21-6 5-15 5-21 0z m-68 139c-8 0-15-7-15-15s7-15 15-15h22c8 0 15 7 15 15s-7 15-15 15z m89 130l-16 16c-6 6-15 6-21 0-6-6-6-15 0-21l16-15c6-6 15-6 21 0 5 5 5 15 0 20z m203-145c0 8-7 15-15 15h-49v108c0 9-7 15-15 15s-15-6-15-15v-123c0-8 7-15 15-15h64c8 0 15 7 15 15z m199 2c8 1 14 8 14 16-10 154-138 274-292 274-161 0-292-131-292-292 0-161 131-292 292-292 144 0 268 106 289 248 1 8-4 16-12 17-8 1-16-4-17-12-19-128-130-224-260-224-145 0-263 118-263 263s118 263 263 263c139 0 254-109 262-247 1-8 8-14 16-14z m-278 374c-51 0-102-11-148-31h-259c-8 0-14-6-14-14s6-15 14-15h204c-28-18-53-39-76-64-5-6-5-15 1-20 6-6 16-5 21 1 66 72 159 114 257 114 191 0 347-156 347-347 0-191-156-347-347-347-191 0-346 156-346 347 0 67 19 132 55 188 4 7 2 16-5 20-6 5-15 3-20-4-39-61-60-131-60-204 0-132 69-249 173-316h-204c-8 0-14-6-14-15s6-14 14-14h258c46-20 96-31 149-31 207 0 376 169 376 376s-169 376-376 376z" horiz-adv-x="1000" />

<glyph glyph-name="062-back-in-time" unicode="&#xe86f;" d="M894 659h31c11 0 19 8 19 19s-8 20-19 20h-74c-11 0-20-9-20-20v-74c0-11 9-20 20-20s19 9 19 20v21c59-79 92-175 92-275 0-255-207-462-462-462s-461 207-461 462 207 461 461 461c19 0 38-1 57-3 10-2 20 6 21 17 2 10-6 20-17 21-20 3-40 4-61 4-133 0-259-52-353-146-95-95-147-221-147-354s52-260 147-354c94-95 220-147 353-147s260 52 354 147c95 94 147 220 147 354 0 112-38 221-107 309z m-682-104c-9 6-21 3-27-6-45-70-64-155-56-238 9-85 47-165 108-225 72-73 168-109 263-109s191 36 264 109c146 145 146 382 0 528-60 60-140 98-224 107-83 8-168-11-238-55-9-6-12-18-6-27 5-10 17-12 27-7 132 84 302 65 414-46 130-130 130-342 0-472-131-131-343-131-473 0-109 109-129 283-46 414 6 9 3 21-6 27z m542-225h24c11 0 20 9 20 19s-9 20-20 20h-24c-10 0-19-9-19-20s8-19 19-19z m-551 20c0-11 9-19 19-19h24c11 0 20 8 20 19s-9 20-20 20h-24c-10 0-19-9-19-20z m317 254v24c0 11-9 19-19 19s-20-8-20-19v-24c0-11 9-20 20-20s19 9 19 20z m-39-508v-24c0-11 8-20 19-20s20 9 20 20v24c0 11-9 19-20 19s-19-8-19-19z m-79 379c-7 8-20 8-27 0-8-7-8-20 0-27l66-67c-5-9-8-20-8-31 0-37 30-68 67-68s68 31 68 68c0 11-3 22-8 31l133 134c8 8 8 20 0 28-7 7-20 7-27 0l-134-134c-9 5-20 8-32 8s-22-3-31-8l-67 66z m127-125c0-16-13-29-29-29s-28 13-28 29 13 28 28 28 29-13 29-28z m-265 236c4 4 6 9 6 14s-2 10-6 14c-3 3-8 5-14 5-5 0-10-2-13-5-4-4-6-9-6-14 0-5 2-10 6-14 3-4 8-6 13-6 6 0 11 2 14 6z m372 206c5 0 10 2 13 5 4 4 6 9 6 14 0 5-2 10-6 14-3 4-8 6-13 6-5 0-11-2-14-6-4-4-6-9-6-14 0-5 2-10 6-14 3-3 9-5 14-5z" horiz-adv-x="1000" />

<glyph glyph-name="061-deadline" unicode="&#xe870;" d="M754 345c-41 0-80-13-112-39-7-5-8-14-3-20 5-7 15-8 21-3 27 21 59 33 94 33 84 0 152-69 152-153s-68-152-152-152-153 68-153 152c0 29 8 57 24 81 4 7 2 16-5 21-7 4-16 2-20-5-18-29-28-62-28-97 0-100 82-181 182-181s181 81 181 181c0 100-81 182-181 182z m114-189h-100v100c0 8-6 15-14 15s-15-7-15-15v-114c0-9 7-15 15-15h114c8 0 15 6 15 15s-7 14-15 14z m26 210v254c0 38-31 69-69 69h-32v36c0 32-26 58-58 58s-58-26-58-58v-36h-76v36c0 32-26 58-58 58s-58-26-58-58v-36h-76v36c0 32-26 58-58 58s-58-26-58-58v-36h-76v36c0 32-26 58-58 58-32 0-58-26-58-58v-36h-32c-38 0-69-31-69-69v-8c0-8 7-14 15-14s14 6 14 14v8c0 22 18 40 40 40h32c0 0 0-36 0-36 0-33 26-59 58-59s58 26 58 59v36h76c0 0 0-36 0-36 0-33 26-59 58-59s58 26 58 59v36h76c0 0 0-36 0-36 0-33 26-59 58-59s58 26 58 59v36h76c0 0 0-36 0-36 0-33 26-59 58-59s58 26 58 59v36h32c22 0 39-18 39-40v-104h-835v38c0 8-6 15-14 15s-15-7-15-15v-505c0-38 31-69 69-69h520c44-39 102-63 165-63 52 0 103 16 145 47 7 5 8 14 3 21-4 6-14 8-20 3-38-27-82-42-128-42-120 0-217 98-217 217s97 217 217 217c21 0 43-3 64-9 0 0 0 0 1-1 88-27 152-110 152-207 0-50-18-98-49-137-5-6-5-16 2-21 6-5 15-4 20 2 36 44 56 100 56 156 0 84-42 158-106 203z m-706 258c0-16-13-29-29-29-16 0-29 13-29 29v101c0 16 13 29 29 29 16 0 29-13 29-29v-101z m192 0c0-16-13-29-29-29s-29 13-29 29v101c0 16 13 29 29 29s29-13 29-29v-101z m192 0c0-16-13-29-29-29-16 0-29 13-29 29v101c0 16 13 29 29 29 16 0 29-13 29-29v-101z m192 0c0-16-13-29-29-29-16 0-29 13-29 29v101c0 16 13 29 29 29 16 0 29-13 29-29v-101z m-389-137h144v-140h-144v140z m-202-478h-104c-22 0-40 18-40 40v100h144v-140z m0 169h-144v140h144v-140z m0 169h-144v140h144v-140z m29-29h144v-140h-144v140z m144-309h-144v140h144v-140z m0 338h-144v140h144v-140z m29-29h144v-81c-6-18-10-38-11-59h-133v140z m186-309h-186v140h133c3-51 21-100 53-140z m-13 290v19h14c-5-6-10-13-14-19z m144 103c-39-10-73-29-102-55h-42v140h144v-85z m172-18c-13 6-28 12-42 16-1 0-1 0-1 1-22 6-45 9-67 9-11 0-22-1-33-2v79h143v-103z" horiz-adv-x="1000" />

<glyph glyph-name="060-clock" unicode="&#xe871;" d="M998 304c-9 90-49 175-114 240-54 55-122 90-192 106v49c28 7 50 34 50 65 0 36-30 66-66 66h-141c-37 0-66-30-66-66 0-31 21-58 50-65v-50c-71-15-138-51-192-105-12-12-23-25-34-38 0 0-1 0-1 0h-139c-11 0-20-9-20-19s9-20 20-20h114c-15-24-26-49-35-75h-212c-11 0-20-9-20-20s9-19 20-19h201c-6-25-9-50-10-75h-86c-11 0-19-9-19-20s8-19 19-19h87c2-26 6-51 12-75h-126c-11 0-20-9-20-20s9-19 20-19h139c19-51 49-99 90-139 64-65 149-105 240-114 12-1 25-2 38-2 76 0 152 22 216 64 9 6 11 18 5 27s-18 11-27 5c-140-91-327-71-445 47-138 139-138 364 0 503 139 139 364 139 503 0 118-118 138-305 47-445-6-9-3-21 6-27 9-6 21-3 27 6 48 75 70 165 61 254z m-490 460c0 15 12 27 27 27h141c15 0 27-12 27-27s-12-28-27-28h-4-134-3c-15 0-27 13-27 28z m50-108v41h95v-41c-32 4-64 4-95 0z m313-637c-5 0-10-2-14-6-4-3-6-8-6-14 0-5 2-10 6-13 4-4 9-6 14-6 5 0 10 2 14 6 3 3 5 8 5 13 0 6-2 11-5 14-4 4-9 6-14 6z m-265 549c-168 0-303-136-303-303s135-303 303-303 303 136 303 303-136 303-303 303z m0-567c-146 0-264 118-264 264s118 264 264 264 263-119 263-264-118-264-263-264z m123 415l-97-97c-8 4-17 6-26 6-10 0-19-2-27-6l-44 43c-7 8-20 8-27 0-8-7-8-20 0-27l43-44c-4-8-6-17-6-26 0-34 27-61 61-61s60 27 60 61c0 9-2 18-6 26l94 94v0l3 3c7 8 7 20 0 28s-20 7-28 0z m-123-173c-12 0-22 10-22 22s10 21 22 21 21-9 21-21-10-22-21-22z m208 41h-18c-11 0-19-9-19-20s8-19 19-19h18c11 0 20 9 20 19s-9 20-20 20z m-399 0h-18c-11 0-20-8-20-19s9-20 20-20h18c11 0 19 9 19 20s-8 19-19 19z m191 152c11 0 19 9 19 19v18c0 11-8 20-19 20s-20-9-20-20v-18c0-10 9-19 20-19z m-1-343c-11 0-19-8-19-19v-18c0-11 8-20 19-20s20 9 20 20v18c0 11-9 19-20 19z m-585 71c-6 0-11-2-14-6-4-4-6-9-6-14 0-5 2-10 6-14s8-5 14-5 10 2 13 5c4 4 6 9 6 14s-2 10-6 14c-3 4-8 6-13 6z" horiz-adv-x="1000" />

<glyph glyph-name="058-hand" unicode="&#xe872;" d="M461 172c7 7 7 20 0 27-8 8-20 8-28 0-8-7-8-20 0-27 8-8 20-8 28 0z m0 0m-93 463c0-118 96-215 215-215s215 97 215 215-97 215-215 215-215-96-215-215z m391 0c0-97-79-175-176-175s-176 78-176 175c0 97 79 176 176 176s176-79 176-176z m0 0m-533-779c8-8 20-8 27 0l95 93c16 16 21 40 14 61l20 19c11 11 26 17 41 17h260c46 0 89 17 122 49 2 2-10-12 177 212 28 33 24 82-9 110-33 28-82 24-110-9l-115-118c-14 18-36 29-60 29h-218c-31 13-64 19-98 19-94 0-176-43-220-124-19 3-38-2-52-17l-93-93c-8-7-8-20 0-27z m146 443c30 0 59-6 86-17 2-2 5-2 8-2h222c21 0 39-17 39-39 0-22-18-39-39-39h-160c-11 0-19-9-19-20 0-11 8-19 19-19h160c43 0 78 35 78 78 0 3-1 7-1 10 111 115 127 131 128 132 14 16 38 18 55 4 16-14 18-38 4-55l-175-209c-25-25-59-38-94-38h-260c-25 0-49-10-68-28l-16-16-153 153c35 67 103 105 186 105z m-245-129c7 6 17 7 24 3 4-2-6 6 170-169 7-8 7-20 0-27l-81-80-192 193z m0 0m432 582v-22c-22-9-39-30-39-56 0-32 27-58 59-58 11 0 20-9 20-20 0-11-9-19-20-19-8 0-17 5-25 14-7 9-20 10-28 3-8-7-9-19-2-28 10-12 22-21 35-25v-23c0-11 9-19 20-19s20 8 20 19v23c22 8 39 30 39 55 0 33-27 59-59 59-11 0-20 9-20 19 0 11 9 20 20 20 7 0 14-4 21-10 8-8 20-8 28 0 7 8 7 20-1 28-10 9-20 15-28 18v22c0 11-9 20-20 20s-20-9-20-20z m0 0" horiz-adv-x="998" />

<glyph glyph-name="054-coding" unicode="&#xe873;" d="M990 376l-231 245c-15 15-38 16-53 1-15-14-16-38-2-53l207-219-207-219c-14-15-13-39 2-53 7-7 16-10 25-10 10 0 20 3 28 11l231 245c13 15 13 37 0 52z m-694-245l-207 219 207 219c14 15 14 39-1 53-16 15-39 14-53-1l-232-245c-13-15-13-37 0-52l232-245c7-8 17-11 27-11 9 0 18 3 26 10 15 14 15 38 1 53z m265 616c-21 3-40-11-43-31l-110-720c-3-21 11-40 31-43 2 0 4-1 6-1 18 0 34 14 37 32l110 720c3 21-11 40-31 43z" horiz-adv-x="1000" />

<glyph glyph-name="053-sketch" unicode="&#xe874;" d="M968 583a63 63 0 0 1-89 0l-20-20v256a16 16 0 0 1-15 15h-688a16 16 0 0 1-15-15v-938a16 16 0 0 1 15-15h563a16 16 0 0 1 11 4l125 125a16 16 0 0 1 4 11v381l109 108a63 63 0 0 1 0 88z m-234-664v72h72z m94 103h-109a16 16 0 0 1-16-16v-109h-531v906h656v-271l-432-432a16 16 0 0 1-4-6l-33-100a16 16 0 0 1 15-20 16 16 0 0 1 5 0l99 34a16 16 0 0 1 6 3l344 344z m-399 67l44-44-8-9-67-22 22 66z m66-22l-44 44 384 384 44-44z m450 450l-44-44-44 44 44 44a31 31 0 1 0 44-44z m-608-315c-9 9-20 15-31 21-11 5-20 11-26 19-12 16-6 41 6 59 18 29 49 52 93 71 19 8 40 15 59 21 20 7 42 14 62 23 18 7 41 19 59 37 20 20 30 46 27 70-2 24-17 47-40 63-21 15-47 21-64 24-70 14-140 7-207 0a16 16 0 1 1 3-31c65 6 133 13 198 1 23-5 40-11 53-20 15-10 25-25 26-40 2-15-5-32-18-45-14-15-34-24-49-30-20-9-40-16-60-22-20-7-41-14-61-22-51-22-86-49-108-83-16-25-26-65-4-95 10-13 24-21 36-28 9-5 18-9 24-15 9-10 18-31 9-59-8-23-24-43-39-62a16 16 0 0 1 24-19c17 20 35 43 44 72 11 33 5 68-16 90z" horiz-adv-x="1000" />

<glyph glyph-name="051-task" unicode="&#xe875;" d="M356 579c-7 5-16 3-21-4l-46-66-31 27c-6 5-15 4-20-2-6-6-5-15 1-20l32-29c12-11 31-8 40 5l48 69c5 6 3 15-3 20z m0-214c-7 5-16 3-21-4l-46-66-31 27c-6 5-15 5-20-2-6-6-5-15 1-20l32-29c12-11 31-8 40 5l48 69c5 6 3 15-3 20z m0-211c-7 5-16 3-21-4l-46-66-31 27c-6 5-15 4-20-2-6-6-5-15 1-20l32-29c12-11 31-8 40 5l48 69c5 6 3 15-3 20z m283 420h-207c-8 0-15-7-15-15s7-14 15-14h207c8 0 15 6 15 14s-7 15-15 15z m0-65h-207c-8 0-15-7-15-15s7-14 15-14h207c8 0 15 6 15 14s-7 15-15 15z m15-159c0 8-7 15-15 15h-207c-8 0-15-7-15-15s7-15 15-15h207c8 0 15 7 15 15z m-222-50c-8 0-15-7-15-15s7-15 15-15h104c8 0 14 7 14 15s-6 15-14 15z m474 249c-25 21-63 17-84-9-14-18-359-448-386-481-1-3 1 2-50-101h-209c-4 0-7 3-7 7v739h97v-9c0-21 17-37 37-37h280c20 0 37 16 37 37v9h96v-223c0-8 7-15 15-15s15 7 15 15v223h23c9 0 17-7 17-17v-119c0-8 7-15 15-15s14 7 14 15v119c0 26-21 47-46 47h-151c-7 26-31 46-60 46h-28c-5 0-9 4-9 9 0 34-27 61-61 61h-35c-33 0-61-27-61-61 0-5-4-9-8-9h-29c-28 0-53-20-59-46h-151c-26 0-47-21-47-47v-790c0-26 21-47 47-47h652c25 0 46 21 46 47v373c0 8-6 15-14 15s-15-7-15-15v-373c0-10-8-18-17-18h-652c-9 0-17 8-17 18v790c0 10 8 17 17 17h23v-739c0-20 16-36 36-36h202c1-9 5-17 12-22 13-11 32-11 44 0l28 22h248c20 0 36 16 36 36v218c0 8-7 15-15 15s-15-7-15-15v-218c0-4-3-7-6-7h-212c30 25 29 24 31 26 27 33 371 463 386 481 20 26 16 64-10 84z m-610 170c0 18 15 32 32 32h29c21 0 38 17 38 38 0 18 14 32 31 32h35c18 0 32-14 32-32 0-21 17-38 38-38h28c18 0 32-14 32-32v-24c0-5-3-8-7-8h-280c-4 0-8 3-8 8z m121-789c-2-2-5-2-7 0-2 1-3 4-2 7l45 90 43-34z m99 84l-47 38 313 391 48-38z m377 470l-45-56-47 38 44 56c11 13 30 15 43 4 13-10 15-29 5-42z" horiz-adv-x="1000" />

<glyph glyph-name="050-phone-call" unicode="&#xe876;" d="M790 231c-20 21-45 32-71 32-26 0-51-11-72-32l-67-67c-5 3-11 6-16 9-8 4-15 7-21 11-62 40-119 91-174 158-26 34-44 62-57 90 18 16 34 32 49 48 6 6 12 12 18 18 44 45 44 102 0 146l-58 58c-6 6-13 13-19 20-13 13-26 27-40 39-20 20-45 31-71 31s-50-11-71-31c-1 0-1 0-1 0l-72-73c-27-27-42-60-45-98-6-61 13-119 27-156 34-93 85-178 161-270 93-110 204-197 331-259 48-23 113-50 186-55 4 0 9 0 13 0 49 0 90 17 122 52 0 1 0 1 0 1 11 14 24 26 37 39 10 8 19 17 28 27 21 22 32 47 32 73 0 26-11 51-33 72l-116 117z m76-223c0 0 0 0 0 0-8-9-17-17-26-26-14-13-27-26-41-42-21-23-46-33-79-33-3 0-6 0-10 0-62 4-121 28-164 49-120 58-225 140-312 244-72 87-120 167-152 253-19 53-27 94-23 133 2 24 11 45 29 62l72 72c10 10 21 15 32 15 13 0 24-8 31-15 0 0 0 0 0 0 13-12 25-25 38-38 7-7 14-13 20-20l58-58c22-22 22-43 0-65-6-7-12-13-18-19-18-18-35-35-53-51-1-1-1-1-1-1-18-18-15-36-11-48 0-1 0-1 0-2 15-36 36-70 69-111l0 0c58-72 119-128 187-171 9-5 18-10 26-14 8-4 15-7 21-11 1-1 2-1 3-2 7-3 14-5 20-5 18 0 29 11 33 15l72 72c7 7 18 16 32 16 13 0 23-9 30-16 0 0 0 0 0 0l117-117c21-21 21-43 0-66z m-326 604c56-9 106-35 146-75s66-91 76-146c2-14 14-24 28-24 1 0 3 1 5 1 15 2 26 17 23 33-11 67-43 128-91 176s-110 80-177 91c-15 3-30-7-33-23s8-30 23-33z m459-203c-19 110-71 210-151 290s-180 132-290 151c-15 2-30-8-33-24-2-15 8-30 24-33 98-16 188-63 259-134 72-71 118-161 135-259 2-14 14-24 28-24 2 0 3 0 5 0 15 3 26 18 23 33z" horiz-adv-x="1000" />

<glyph glyph-name="048-star" unicode="&#xe877;" d="M224-111c-11 0-22 3-31 10-17 13-25 34-21 55l65 284-219 192c-16 14-22 36-15 56 6 21 24 35 45 37l290 26 114 268c8 19 28 32 49 32 21 0 41-13 49-32l114-268 290-26c21-2 39-16 45-37 7-20 1-42-15-56l-219-192 65-284c4-21-4-42-21-55-17-13-40-13-59-3l-249 150-249-150c-9-5-18-7-28-7z m277 221c9 0 19-3 27-8l236-141-61 268c-4 20 2 39 17 52l206 181-273 25c-20 2-37 14-44 32l-108 253-108-253c-8-18-24-30-44-32l-273-25 206-181c15-13 21-32 17-52l-61-268 236 141c8 5 18 8 27 8z m-166 434s0 0 0 0z m331 0l1 0c0 0 0 0-1 0z m0 0" horiz-adv-x="1000" />

<glyph glyph-name="047-business-and-finance" unicode="&#xe878;" d="M948 199c-23 40-74 54-114 31l-196-100c-11 13-26 22-42 26l-206 55c-15 4-32 4-48-1l-70-24c-5-2-11-3-16-3h-56v67h-200v-33h167v-334h-167v-33h200v50h25c4 0 8-1 12-2l118-29c6-2 13-2 20-2h141c14 0 29 3 41 11l360 208c26 15 42 42 42 72 0 14-4 29-11 41z m-48-85l-359-207c-8-5-17-7-25-7h-141c-4 0-8 0-12 1l-118 30c-6 1-13 2-20 2h-25v217h56c9 0 18 1 26 4l71 24c9 3 19 3 29 1l206-55c26-8 42-35 35-62-7-26-35-42-62-35l-157 38-8-33 157-37c30-8 61 1 82 23 21 22 29 54 19 83l196 100c16 9 35 9 50 0 16-9 25-25 25-43 0-18-9-35-25-44z m0 0m-267 469c-110 0-200-89-200-200s90-200 200-200 200 90 200 200c0 111-89 200-200 200z m0-366c-92 0-166 74-166 166s74 167 166 167 167-75 167-167c0-92-75-166-167-166z m0 0m217 633c-83 0-150-67-150-150s67-150 150-150 150 67 150 150c0 83-67 150-150 150z m0-267c-64 0-117 53-117 117s53 117 117 117 117-53 117-117c0-64-53-117-117-117z m0 0m0 167c9 0 17-7 17-17h33c0 21-13 40-33 47v20h-34v-20c-23-8-36-31-32-55 4-24 25-42 49-42 9 0 17-7 17-16s-8-17-17-17-17 8-17 17h-33c0-21 13-40 33-47v-20h34v20c23 8 36 31 32 55-4 24-25 42-49 42-9 0-17 7-17 16s8 17 17 17z m0 0m-217-283c19 0 34-15 34-34h33c0 31-21 57-50 65v35h-33v-35c-33-9-54-40-50-73 5-33 33-58 66-58 19 0 34-15 34-34s-15-33-34-33-33 15-33 33h-33c0-30 20-56 50-64v-36h33v36c33 8 54 40 49 73-4 33-32 58-66 58-18 0-33 15-33 33s15 34 33 34z m0 0" horiz-adv-x="1000" />

<glyph glyph-name="046-deal" unicode="&#xe879;" d="M991 638c-5 4-13 5-19 2l-170-61c-21-8-38-23-47-44-2-4-3-8-4-11-29 8-83 25-137 53-82 42-144 21-197-20-27 0-64-3-101-7-23-2-45-3-63-5-1 11-3 22-8 32-9 20-26 36-47 43l-170 62c-6 2-14 2-19-2-6-4-9-11-9-17v-417c0-12 9-21 21-21h61c26 0 50 12 65 32 9-6 18-14 29-21 24-19 51-39 62-48 78-65 171-136 190-148 17-11 48-23 72-23 9 0 33 0 49 14 17-7 35-7 52 1 17 7 31 21 39 38 16-3 35 0 52 8 16 8 28 20 34 34 15-1 31 4 45 15 21 15 30 39 28 61l52 30c16-21 41-35 67-35h61c12 0 21 10 21 21v417c0 7-3 13-9 17z m-870-344c-6-16-22-27-39-27h-40v366l142-52c10-4 19-11 23-22 5-10 5-21 1-32l-87-233z m625-134c-7-6-17-9-21-4-1 0-1 0-1 0-1 0-1 1-1 1-15 12-82 80-123 123-8 9-21 9-29 1-9-8-9-21-1-29 10-11 87-91 118-120-2-9-10-15-15-17-13-6-27-5-32 0 0 0-1 0-1 0 0 0 0 0 0 1-25 20-88 86-102 102-8 8-21 9-30 1-8-8-9-21-1-30 1 0 62-67 97-97-4-10-11-18-19-22-7-3-17-5-29 4-30 25-90 89-102 102-7 8-21 9-29 1-8-8-9-21-1-29 14-15 55-59 87-89-4 0-7-1-11-1-14 0-37 9-49 17-15 10-107 78-186 144-12 10-39 31-64 50-14 10-26 19-35 26l78 208c20 1 47 3 76 6 16 1 32 3 47 4-23-24-59-68-54-109 2-19 12-34 30-45 34-21 97-3 127 34 20 3 33 8 47 15 25-23 57-50 92-78 60-50 127-106 145-137 10-17-3-30-8-33z m36 67c-28 37-88 87-147 135-39 32-76 62-99 86-7 7-17 8-25 4-21-12-31-16-55-19-6 0-12-4-15-9-17-26-62-39-76-30-9 6-10 11-11 15-2 17 16 48 46 78 74 74 126 88 195 53 64-34 128-52 155-60 1-3 2-6 3-9l81-216-52-28z m176-2h-40c-17 0-33 11-39 27l-87 234c-4 10-4 22 1 32 5 10 13 18 23 22l142 51v-366z" horiz-adv-x="1000" />

<glyph glyph-name="045-happy" unicode="&#xe87a;" d="M500 850c-276 0-500-224-500-500s224-500 500-500 500 224 500 500-224 500-500 500z m0-941c-243 0-441 198-441 441s198 441 441 441 441-198 441-441-198-441-441-441z m-119 535c5-16 22-24 37-18 15 5 23 21 18 37-18 52-66 86-121 86-55 0-103-35-121-86-5-16 3-32 18-38 3-1 7-1 10-1 12 0 23 8 27 20 10 28 36 47 66 47 30 0 56-19 66-47z m304 105c-55 0-103-35-121-86-5-16 3-32 18-38 4-1 7-1 10-1 12 0 23 8 28 20 9 28 36 47 65 47 30 0 56-19 66-47 5-16 22-24 37-18 15 5 23 21 18 37-17 52-66 86-121 86z m6-321c-14 8-32 3-40-10-31-53-89-86-151-86-61 0-119 33-151 85-8 14-26 19-40 10-14-8-18-26-10-40 42-70 119-114 201-114 82 0 159 44 201 115 9 13 4 31-10 40z" horiz-adv-x="1000" />

<glyph glyph-name="044-profit" unicode="&#xe87b;" d="M254 753c-34 0-62-27-62-61s28-62 62-62 62 27 62 62-28 61-62 61z m0-94c-18 0-33 15-33 33 0 18 15 32 33 32 18 0 32-14 32-32 0-18-14-33-32-33z m62-245v57c0 8-7 14-15 14h-149c-8 0-15-6-15-14v-57c0-8 7-15 15-15h149c8 0 15 7 15 15z m-30 15h-120v27h120v-27z m647 299h-93c-16 0-30-9-37-22h-391v9c0 7-5 13-11 15l-36 7c0 0 0 1 0 1l20 30c3 6 3 14-2 19l-34 34c-5 4-13 5-18 1l-31-19c0 0 0 0 0 0l-8 35c-1 7-7 12-14 12h-48c-7 0-13-5-15-12l-7-35c0 0 0 0-1 0l-30 19c-6 4-14 3-18-1l-34-34c-5-5-6-13-2-19l20-30c0 0 0-1 0-1l-36-7c-7-2-12-8-12-15v-9h0c-39 0-71-31-71-70v-456c0-39 32-70 71-70h55c7-51 52-90 104-90 15 0 29 3 42 9l-33-130c-13-51 69-69 82-19l58 230h48v-221c0-21 18-39 40-39 21 0 39 18 39 39v221h48l58-230c13-50 95-32 82 19l-54 211h222c39 0 71 31 71 70v317c0 8-7 14-15 14s-14-6-14-14v-317c0-23-19-41-42-41l-529 0c-7 51-51 90-103 90-52 0-97-39-104-90h-55c-23 0-41 18-41 41v425h67c0-3 1-6 4-9l34-33c4-5 12-6 18-2l30 20c1-1 1-1 1-1l7-35c2-7 8-12 15-12h48c7 0 13 5 14 12l8 35c0 0 0 0 0 1l31-20c5-4 13-3 18 2l34 33c2 3 4 6 4 9h405l-137-136-70 70c-11 11-29 11-40 0l-45-45c-6-6-6-15 0-21s15-6 20 0l45 45 70-71c11-10 30-10 40 0l200 200c4 4 5 10 3 16-2 5-8 9-14 9h-24c-17 0-17 27 0 27h93c7 0 13-6 13-13v-93c0-8-6-14-13-14-8 0-14 6-14 14v24c0 6-3 11-9 14-5 2-12 1-16-4l-239-238-70 70c-11 11-29 11-40 0l-120-120c-12-13-32 7-19 19l66 66c5 6 5 15 0 21-6 5-15 5-21 0l-66-66c-17-17-16-46 1-62 17-16 44-15 60 1l119 120 70-71c11-10 30-11 40 0l216 216c4-19 22-33 42-33 23 0 43 20 43 43v93c0 23-19 42-43 42z m-617-841c-3-13-28-10-24 5l42 165c12 15 20 33 23 53h16z m185 2c0-13-21-13-21 0v221h21z m189 3c3-15-22-18-25-5l-57 223h26z m-453 305c5 2 11 2 17 2 41 0 75-33 75-75l0 0 0 0c0-41-34-75-75-75-41 0-75 34-75 75 0 35 24 66 58 73z m-183 439c0 22 18 41 41 41h0v-9c0-7 5-13 12-15l36-7c0 0 0-1 0-1l-7-10h-82z m283-44l-28 17c-10 7-34-3-36-15l-7-32h-24l-7 32c-2 12-27 22-37 15l-27-17-17 17 18 27c6 10-4 34-16 37l-31 6v25l31 6c12 3 22 27 16 37l-18 27 17 17 27-17c10-7 35 3 37 15l7 32h24l7-32c2-12 26-22 36-15l28 17 17-17-18-27c-7-10 4-34 15-37l32-6v-25l-32-6c-12-3-22-27-15-37l18-27z m493 52l-9-9h-449l-7 10c0 0 0 1 0 1l36 7c6 2 11 8 11 15v9h386c3-16 16-30 32-33z m23-407h-278c-8 0-14-7-14-15s6-15 14-15h278c8 0 15 7 15 15s-7 15-15 15z m0 64h-165c-8 0-14-7-14-15s6-14 14-14h165c8 0 15 6 15 14s-7 15-15 15z m-701 72c-8 0-15-6-15-15s7-14 15-14h102c8 0 14 6 14 14s-6 15-14 15z m102-283c8 0 14 6 14 14v40c0 8-6 15-14 15s-15-7-15-15v-40c0-8 7-14 15-14z" horiz-adv-x="1000" />

<glyph glyph-name="043-promotion" unicode="&#xe87c;" d="M268 248c9 5 12 17 7 27-6 9-18 12-27 7-9-6-13-17-7-27 5-9 17-12 27-7z m0 0m-80-135l98-170c21-37 69-51 107-29 37 22 50 69 28 107l-58 101 50 30c10 5 13 17 7 26l-25 44c3 1 23 5 374 74 44 2 70 50 48 88l-65 112 41 63c4 6 5 14 1 20l-39 68c-4 6-11 10-18 10l-75-5-72 125c-11 18-30 29-50 29-1 0-1 0-1 0-20 0-39-10-50-27l-255-325-166-95c-65-38-88-122-50-187 35-60 108-84 170-59z m199-112c11-18 5-42-14-53-19-11-43-4-53 14l-98 170 68 39c113-196 96-166 97-170z m-44 155l-19 34 33 20 20-34z m384 461l27-47-24-36-47 80z m-205 141c5 9 14 9 17 9 3 0 12-1 17-9l227-394c7-13-2-29-17-29-2 0-3-1-10-2l-241 416c5 7 6 7 7 9z m-33-42l226-391-341-67-103 180z m-437-525c-8 15-13 32-13 49 0 35 19 67 49 85l152 88 98-170-152-87c-47-27-107-11-134 35z m0 0m155 45c-5 9-17 12-27 7l-33-20c-10-5-22-2-27 7-6 10-17 13-27 8s-12-18-7-27c16-28 52-38 80-22l34 20c9 5 12 17 7 27z m0 0m764 529l-109-61c-9-5-13-17-7-27 5-9 17-12 26-7l109 60c9 6 13 18 8 27-6 9-18 13-27 8z m0 0m-11-203l-76 21c-10 2-21-4-24-14-3-11 4-21 14-24l76-20c10-3 21 3 23 13 3 11-3 22-13 24z m0 0m-190 274l-20-76c-3-10 3-21 14-24 10-3 21 4 23 14l21 75c2 11-4 22-14 24-11 3-21-3-24-13z m0 0" horiz-adv-x="1000" />

<glyph glyph-name="042-instagram" unicode="&#xe87d;" d="M729 850h-458c-150 0-271-121-271-271v-458c0-150 121-271 271-271h458c150 0 271 121 271 271v458c0 150-121 271-271 271z m212-729c0-117-95-212-212-212h-458c-117 0-212 95-212 212v458c0 117 95 212 212 212h458c117 0 212-95 212-212z m0 0m-441 502c-151 0-273-122-273-273s122-273 273-273 273 122 273 273-122 273-273 273z m0-488c-118 0-215 97-215 215 0 118 97 215 215 215 118 0 215-97 215-215 0-118-97-215-215-215z m0 0m280 586c-45 0-81-37-81-81 0-45 36-81 81-81s81 36 81 81-36 81-81 81z m0-103c-12 0-22 10-22 22 0 12 10 22 22 22 12 0 22-10 22-22 0-12-10-22-22-22z m0 0" horiz-adv-x="1000" />

<glyph glyph-name="041-youtube-1" unicode="&#xe87e;" d="M919 756c-11 40-42 72-83 83-73 20-367 20-367 20s-293 0-367-19c-39-11-72-44-83-84-19-73-19-226-19-226s0-153 19-225c11-40 43-72 83-83 74-20 367-20 367-20s294 0 367 19c41 11 72 43 83 83 19 73 19 226 19 226s1 153-19 226z m-543-366v281l244-141z m0 0" horiz-adv-x="1000" />

<glyph glyph-name="040-youtube" unicode="&#xe87f;" d="M654 516l-221 121c-13 7-28 7-40-1-13-7-20-20-20-35v-239c0-15 7-28 20-35 6-4 13-6 21-6 6 0 13 2 19 5l221 119c13 7 21 20 21 35 0 15-8 29-21 36z m-222-124v179l165-90z m0 0m561 279l0 1c-1 8-10 79-44 116-41 43-86 48-108 50-2 1-4 1-5 1l-2 0c-132 10-332 11-334 11l0 0 0 0c-2 0-202-1-335-11l-2 0c-1 0-3 0-5-1-21-2-66-7-107-52-33-36-42-106-43-114l-1-1c0-3-7-83-7-163v-75c0-80 7-159 7-163l0 0c1-8 10-79 44-115 38-41 86-47 112-50 4 0 7-1 10-1l2 0c76-8 316-11 326-11l0 0 0 0c2 0 202 1 334 11l2 0c2 0 4 0 6 0 21 3 66 7 106 51 33 36 43 106 44 114l0 1c0 4 7 83 7 163v75c0 80-7 160-7 163z m-52-238c0-74-6-150-7-157-2-19-12-64-28-81-25-28-51-30-70-32-2-1-4-1-6-1-128-9-320-11-329-11-10 0-245 4-319 11-4 0-8 1-13 1-21 3-51 6-75 32l0 0c-16 17-26 58-28 81-1 5-7 82-7 157v75c0 74 6 150 7 158 3 22 13 64 28 81 26 28 53 31 71 33 2 0 3 1 5 1 130 9 323 10 330 10 7 0 200-1 329-10 2 0 3-1 5-1 19-2 46-5 72-32l0-1c16-16 26-58 28-81 1-5 7-83 7-158z m0 0" horiz-adv-x="1000" />

<glyph glyph-name="070-offer" unicode="&#xe880;" d="M297 419l0-1c-3-43 21-84 61-103l1 0c14-7 25-18 33-32l0 0c20-39 62-62 106-60l1 1c16 0 32-4 45-12 38-24 86-24 123 0 14 8 30 12 46 12l1-1c44-2 86 21 106 60l0 0c7 14 19 25 33 32l0 0c40 19 64 60 62 103l0 1c-1 15 3 30 12 42 25 37 25 84 0 121-9 12-13 27-12 43l0 0c2 43-22 84-62 103l0 1c-14 6-26 17-33 31l0 1c-20 38-62 61-106 59l-1 0c-16-1-32 3-46 12h0c-37 23-85 23-123 0-13-9-29-13-45-12l-1 0c-44 2-86-21-106-59l0-1c-8-14-19-25-33-31l-1-1c-40-19-64-60-61-103l0 0c1-16-4-31-12-43-25-36-25-84 0-121 8-12 13-27 12-42z m18 142c14 19 20 42 19 66l0 0c-1 29 15 56 41 68l0 0c21 10 39 27 50 48l0 0c13 26 41 41 71 40l1-1c24-1 47 5 67 18 26 16 58 16 83 0 21-13 44-19 68-18l1 1c30 1 57-14 71-40l0 0c11-21 28-38 50-48l0 0c26-13 42-39 41-68l0 0c-2-24 5-47 18-66 16-24 16-55 0-78-13-20-20-43-18-66l0-1c1-28-15-55-41-68l0 0c-22-10-39-27-50-48l0 0c-14-25-42-41-71-39l-1 0c-24 1-47-5-68-18-25-16-57-16-83 0-18 12-39 18-61 18-2 0-4 0-6 0l-1 0c-29-2-57 13-71 39l0 0c-11 21-29 38-50 48l0 0c-27 13-43 40-41 68l0 1c1 23-5 46-19 66-16 23-16 54 0 78z m0 0m171-232c8-6 20-3 25 6l221 354c4 5 4 12 1 18-3 6-9 10-16 10-7 1-13-3-17-9l-220-353c-6-9-3-21 6-26z m0 0m19 192c46 0 83 42 83 94s-37 94-83 94-82-43-82-94 37-94 82-94z m0 150c25 0 45-25 45-56s-20-57-45-57c-25 0-45 25-45 57 0 31 20 56 45 56z m0 0m119-242c0-52 37-94 82-94s83 42 83 94c0 51-37 94-83 94-45 0-82-43-82-94z m127 0c0-32-20-57-45-57-24 0-45 25-45 57s21 56 45 56c25 0 45-25 45-56z m0 0m248-310c-24 44-79 60-124 38l-146-69c-20 37-59 61-102 62l-135 4c-21 1-42 6-61 16l-14 7c-70 37-154 37-224 0l1 31c0 10-8 19-18 19l-148 4c-10 0-19-8-19-18l-9-325c0-10 8-18 18-19l148-4h1c10 0 18 8 18 18l1 16 38 20c15 9 33 10 49 6l230-65c0 0 0 0 1 0 16-3 33-5 50-5 36 0 72 8 104 23 1 0 2 0 3 1l332 215c8 5 11 16 6 25z m-961-213l8 287 110-3-8-287z m603 5c-40-18-85-23-129-15l-229 65c-25 7-53 4-77-9l-19-10 5 191c62 41 142 45 208 11l14-7c24-13 50-19 77-20l135-4c38-1 70-28 78-65l-201 6c-10 0-19-8-19-19 0-10 8-19 18-19l222-6h0c10 0 19 8 19 18 0 8 0 16-2 24l150 71 0 0c22 11 47 8 65-9z m0 0" horiz-adv-x="1000" />

<glyph glyph-name="071-price-tag" unicode="&#xe881;" d="M877 92c8 0 15 7 15 15v351c0 18-7 36-19 51l-109 131c-6 7-12 13-19 18 0 4 0 9 0 13v164c0 8-6 15-14 15s-15-7-15-15c0 0 0-165 0-166-4 1-8 1-13 1h-189c-13 0-27-3-38-10-1 0-1-1-2-1l-143-69c-15-8-28-22-35-38 0 0 0 0 0 0l-59-150c-3-8 0-16 8-19 2-1 3-1 5-1 6 0 12 3 14 9l59 150c4 9 12 18 21 22l76 37-75-91c-12-14-18-31-18-51v-506c0-5 1-11 2-17l-151 67c-34 15-50 55-35 90 0 0 1 0 1 0l95 237c3 8-1 16-8 19-8 3-16 0-19-8l-95-237c-22-49 0-106 49-128l177-78c0 0 0 0 1 0 18-28 49-47 84-47h361c56 0 103 47 103 102v87c0 8-7 14-15 14s-15-6-15-14v-87c0-39-33-73-73-73h-361c-39 0-71 33-71 73v506c0 13 3 24 10 32l109 132c10 12 24 19 38 19h189c3 0 6 0 9-1-10-31-32-57-63-70-8 13-23 22-39 22-26 0-46-20-46-46s20-46 46-46c23 0 42 18 45 41 40 15 69 46 83 85 1-1 2-3 3-4l109-132c8-10 12-21 12-32v-351c0-8 7-15 15-15z m-267 438c-10 0-17 7-17 16s7 17 17 17 16-8 16-17-7-16-16-16z m-127-459c3 0 7 1 10 4l250 250c6 6 6 15 0 21-6 5-15 5-21 0l-250-250c-9-9-2-26 11-25z m31 154c35 0 63 29 63 64s-28 63-63 63h-2c-35 0-64-28-64-63s29-64 64-64z m-36 64c0 18 15 34 34 34h2c19 0 34-16 34-34s-15-35-34-35h-2c-19 0-34 16-34 35z m225-218h2c35 0 64 28 64 63s-29 64-64 64h-2c-35 0-63-29-63-64s28-63 63-63z m0 97h2c19 0 34-15 34-34s-15-34-34-34h-2c-19 0-34 15-34 34s15 34 34 34z" horiz-adv-x="1000" />

<glyph glyph-name="072-discount" unicode="&#xe882;" d="M934 337c-4 8-4 18 0 26l37 76c21 43 4 93-38 116l-75 39c-8 5-13 12-15 21l-15 84c-8 47-51 78-98 71l-84-12c-9-1-18 2-24 8l-61 59c-34 33-88 33-122 0l-61-59c-6-6-15-9-24-8l-84 12c-47 7-90-24-98-71l-15-84c-2-9-7-16-15-21l-75-39c-42-23-59-73-38-116l38-76c4-8 4-18 0-26l-38-76c-21-43-4-93 38-115l75-40c8-5 13-12 15-21l15-84c7-42 43-72 85-72 4 0 8 0 13 1l84 12c9 1 18-2 24-8l61-59c17-17 39-25 61-25 22 0 44 8 61 25l61 59c6 6 15 9 24 8l84-12c47-7 90 24 98 71l15 84c2 9 7 16 15 21l75 40c42 22 59 72 38 115l-37 76z m-28-141l-75-39c-24-13-40-36-45-62l-14-84c-3-16-18-26-34-24l-84 12c-26 4-53-5-72-24l-61-59c-12-11-30-11-41 0l-61 59c-17 16-38 25-61 25-4 0-8-1-12-1l-84-12c-16-2-31 8-34 24l-14 84c-5 26-21 49-45 62l-75 39c-14 8-20 25-13 39l37 77c12 24 12 52 0 76l-37 77c-7 14-1 31 13 39l75 39c24 13 40 36 45 62l14 84c3 16 18 26 34 24l84-12c26-4 53 5 73 24l61 59c11 11 29 11 41 0l61-59c19-19 46-28 72-24l84 12c16 2 31-8 34-24l14-84c5-26 21-49 45-62l75-39c14-8 20-25 13-39l-37-77c-12-24-12-52 0-76l37-77c7-14 1-31-13-39z m-195 365c-11 11-30 11-41 0l-381-381c-11-11-11-29 0-41 6-5 13-8 21-8 7 0 14 3 20 8l381 381c11 11 11 29 0 41z m-326 49c-59 0-106-48-106-106s47-106 106-106 105 48 105 106-47 106-105 106z m0-154c-27 0-48 21-48 48 0 26 21 48 48 48 26 0 48-22 48-48 0-27-22-48-48-48z m230-154c-58 0-105-47-105-106s47-105 105-105c59 0 106 47 106 105s-47 106-106 106z m0-154c-26 0-48 22-48 48s22 48 48 48c27 0 48-21 48-48s-21-48-48-48z" horiz-adv-x="1000" />

<glyph glyph-name="073-email-1" unicode="&#xe883;" d="M596 286h-188c-8 0-15-7-15-15s7-15 15-15h188c8 0 14 7 14 15s-6 15-14 15z m-191 98v42h26c8 0 15 7 15 15s-7 14-15 14h-26v25h30c8 0 14 7 14 15s-6 14-14 14h-45c-8 0-15-6-15-14v-111c0-8 7-14 15-14s15 6 15 14z m144 96c8 0 14 7 14 15s-6 14-14 14h-45c-8 0-15-6-15-14v-111c0-8 7-14 15-14s15 6 15 14v42h26c8 0 15 7 15 15s-7 14-15 14h-26v25z m107 1c8 0 15 7 15 15s-7 14-15 14h-46c-8 0-15-6-15-14v-110c0-9 7-15 15-15h46c8 0 15 6 15 15s-7 14-15 14h-32v26h29c8 0 14 7 14 15s-6 14-14 14h-29v26z m148-14c0 24-20 44-45 44h-30c0 0 0 0 0 0s0 0 0 0c-8 0-14-7-14-15v-111c0-8 6-15 14-15s15 7 15 15v29l34-39c3-3 7-5 11-5 4 0 7 2 10 4 6 5 7 15 1 21l-27 31c18 6 31 22 31 41z m-45-14c-4 0-9 0-15 0 0 5 0 23 0 29h15c8 0 16-7 16-15 0-7-8-14-16-14z m-493 57c-38 0-70-32-70-70s32-71 70-71c39 0 71 32 71 71s-32 70-71 70z m0-111c-22 0-41 18-41 41s19 40 41 40 41-18 41-40-18-41-41-41z m691-10l-70 71v320c0 39-31 70-70 70h-630c-39 0-70-31-70-70v-314l-75-77c0-1 0-1 0-1-5-5-7-11-7-17v-450c0-39 32-71 71-71h788c39 0 71 32 71 71v450c0 7-3 14-8 18z m-39-2l-31-18v50z m-801-20l-35 20 35 37z m819-446c0-23-19-42-42-42h-788c-23 0-42 19-42 42v443l419-244c0 0 0 0 0 0l323-188c2-1 5-2 7-2 5 0 10 3 13 7 4 7 1 16-6 20l-291 170 258 150c7 4 10 13 5 20-4 7-13 10-20 5l-270-157c-1-1-3-1-4 0l-28 17c0 0 0 0 0 0l-324 188v430c0 23 18 41 41 41h630c23 0 41-18 41-41v-428l-34-19c-7-4-9-13-5-20 4-7 13-10 20-6l40 24c0 0 0 0 0 0l57 33z m-519 635h170c18 0 32 14 32 32v111c0 18-14 32-32 32h-36v16c0 19-16 34-35 34h-28c-19 0-35-15-35-34v-16h-36c-18 0-32-14-32-32v-111c0-18 14-32 32-32z m66 191c0 2 2 5 5 5h28c3 0 5-3 5-5v-16h-38z m-69-48c0 1 1 3 3 3h170c1 0 3-2 3-3v-111c0-1-2-3-3-3h-170c-2 0-3 2-3 3z" horiz-adv-x="1000" />

<glyph glyph-name="074-contract" unicode="&#xe884;" d="M654 581h-479c-8 0-14-7-14-15s6-15 14-15h479c8 0 15 7 15 15s-7 15-15 15z m-479 73h240c8 0 15 6 15 14s-7 15-15 15h-240c-8 0-14-7-14-15 0-8 6-14 14-14z m479-164h-479c-8 0-14-6-14-14s6-15 14-15h479c8 0 15 7 15 15 0 8-7 14-15 14z m-370-538h-153c-25 0-45 21-45 46v777c0 25 20 46 45 46h442c1 0 3-1 4-1v-91c0-42 34-75 75-75h92c0-2 0-3 0-5v-250c0-8 7-15 15-15s14 7 14 15v250c0 16-6 32-17 43l-141 140c-11 12-26 18-42 18h-442c-41 0-75-34-75-75v-777c0-42 34-75 75-75h153c9 0 15 6 15 14s-6 15-15 15z m439 731h-71c-25 0-46 20-46 46v71z m216-553l-124 210c-9 16-29 21-44 12l-31-18c-23-14-33-43-25-68-10-3-22-3-32 1-24 7-42 22-72 15-51-13-50-12-54-14-30 17-48 22-80 10l-28-11c-13-5-28-4-40 3l-7 5c3 22-7 46-28 59 0 0 0 0 0 0l-30 18c-15 9-35 4-44-12l-125-210c-9-15-4-35 11-44l31-18c9-6 19-8 29-8 11 0 22 3 31 9l7-4-14-18c-16-22-11-53 12-69 10-8 23-11 36-9 2-12 9-24 20-32 10-7 23-10 36-8 2-13 9-24 20-32 15-11 33-12 48-5 4-9 9-17 18-23 21-15 50-11 66 9l36-21c23-14 53-6 67 17 4 6 6 13 7 19l0 0c23-13 54-6 67 18 4 6 7 14 7 21 21-5 43 4 55 23 3 6 6 13 6 20 22-9 48 0 61 21 6 11 8 24 5 37-2 7-5 14-10 20l20 11c16-7 35-6 51 4l30 18c15 9 21 29 11 44z m-707-37l-31 18c-1 1-1 3-1 4l125 210c1 2 3 2 4 1l30-18c14-8 18-25 10-38l-99-167c-8-13-25-18-38-10z m67-91c-9 6-11 19-5 28l20 27c6 9 19 11 28 4 9-6 11-18 4-27l-19-28c-7-9-19-11-28-4z m56-41c-9 7-11 19-5 28l20 27s0 0 0 0c0 0 0 0 0 0l22 31c3 4 7 7 13 8 1 0 2 0 3 0 4 0 8-1 11-4 5-3 8-8 9-13 0-5-1-10-4-15l-41-57c-7-9-19-11-28-5z m56-40c-9 6-11 19-4 28 0 0 0 0 0 0l41 57c6 9 19 11 28 5 9-7 11-19 4-28l-18-26s0 0 0 0l-23-32c-6-8-19-11-28-4z m66-28c-9 7-11 19-5 28l14 19c6 9 19 11 28 5 9-7 11-19 4-28l-14-19c-6-9-18-11-27-5z m329 118c-5-10-17-13-27-7-16 9-119 70-130 77-7 4-16 2-20-5s-2-16 5-20l98-59 0 0c10-5 13-18 7-27-5-10-17-13-27-7-36 21-66 39-98 58-7 4-16 2-21-5s-1-16 6-20l72-43 0 0c10-6 13-18 7-27-6-10-18-13-27-7l-39 23c0 0 0 0 0 0 0 0 0 0 0 0l-29 17c-7 4-16 1-20-6-4-7-2-16 5-20l29-17c0 0 0 0 0 0 9-5 12-17 7-27-6-9-18-12-27-7l-34 20c15 22 9 51-12 67-7 4-14 7-21 8 8 21 1 44-17 58-11 8-24 10-37 8-2 13-9 24-19 32-20 14-47 12-64-5-4 6-8 11-14 15-17 12-38 12-55 2l-7 4 93 156 4-2c20-12 44-14 66-6l28 11c16 7 25 7 41-1-10-11-17-27-17-43v-66c0-17 14-31 32-31h0c17 0 33 7 46 19 7 7 12 16 15 25 19-11 176-104 194-115 5-3 8-7 10-12 1-5 0-11-3-15z m107 100l-30-18c-14-8-31-3-39 10l-46 78c-4 7-13 9-20 5-7-4-9-13-5-20l46-78c1-2 2-3 3-4l-13-8c-3-1-5-3-8-5l-199 118c-10 6-23-1-23-12 0-1 2-16-10-28-7-7-16-11-25-11 0 0 0 0 0 0-1 0-2 1-2 2v66c0 17 11 31 27 35l49 12c18 5 28-5 54-14 19-7 39-6 57 1l9-15c4-7 13-9 20-5 7 4 9 13 5 20l-18 30c-8 13-3 30 10 38l31 18c1 1 3 1 3-1l125-210c1-1 0-3-1-4z" horiz-adv-x="1000" />

<glyph glyph-name="075-signature" unicode="&#xe885;" d="M309 728h-145c-8 0-14 7-14 15s6 14 14 14h145c8 0 15-6 15-14s-7-15-15-15z m0-88h-145c-8 0-14 6-14 15s6 14 14 14h145c8 0 15-6 15-14s-7-15-15-15z m-54-700c-3 0-7 1-10 3-12 10-6 25 7 52 5 13 18 41 17 50-7 2-24-4-56-37-25-27-46-57-46-57-5-7-14-8-21-4-6 5-8 14-3 21 0 1 22 32 49 60 15 16 61 64 95 41 22-15 8-49-7-82 59 40 81 30 110 10 17-11 33-22 69-22 8 0 15-6 15-14s-7-15-15-15c-44 0-68 16-85 27-13 8-20 13-30 12-15-2-36-13-66-35-5-4-14-10-23-10z m674 657l-22 16c-13 9-30 6-39-6l-22-31c-10-1-20-6-26-15l-293-411c-39-55-50-100-61-127-5-14 0-28 12-37 11-8 27-7 38 2 21 19 61 43 100 99l270 379 18-13c2-2 3-5 1-7l-63-89c-5-6-3-16 3-20s16-3 21 3l63 89c11 15 7 37-8 48l-18 12 6 9c6 8 8 19 5 29l22 31c9 13 6 30-7 39z m-38-8l21-15-17-24-21 15z m-47-45c1 3 5 3 7 2l33-24c2-1 3-5 1-7l-230-323-41 30z m-252-440c-18-25-38-48-62-67l-33-27c0 0-1-1-2 0-2 1-1 2-1 3l14 40c11 28 25 55 43 80l46 65 41-30z m190 444c8 0 15 6 15 14v72c0 17-7 33-19 46l-152 151c-12 12-28 19-45 19h-442c-44 0-80-36-80-80v-840c0-44 36-80 80-80h578c44 0 80 36 80 80v335c0 9-7 15-15 15s-15-6-15-15v-335c0-28-22-51-50-51h-578c-28 0-51 23-51 51v840c0 28 23 51 51 51h442c2 0 4 0 6-1v-100c0-44 36-80 80-80h100c0-2 0-4 0-6v-72c0-8 7-14 15-14z m-166 172v80l131-131h-80c-28 0-51 23-51 51z" horiz-adv-x="1000" />

<glyph glyph-name="076-next" unicode="&#xe886;" d="M759 377l-463 462c-15 15-40 15-55 0-15-15-15-40 0-55l435-434-435-434c-15-15-15-39 0-55 8-7 18-11 28-11 10 0 20 4 27 11l463 462c7 7 11 17 11 27s-4 20-11 27z" horiz-adv-x="1000" />

<glyph glyph-name="077-arrow-right" unicode="&#xe887;" d="M500 850c-276 0-500-224-500-500 0-276 224-500 500-500 276 0 500 224 500 500 0 276-224 500-500 500z m0-950c-248 0-450 202-450 450 0 249 202 450 450 450 249 0 450-201 450-450 0-248-202-450-450-450z m0 0m-58 644c-11 9-27 8-36-2-9-11-8-27 3-36l178-156-178-156c-11-9-12-25-3-35 9-11 25-12 35-3l200 175c6 5 9 12 9 19s-3 14-9 19z m0 0" horiz-adv-x="1000" />

<glyph glyph-name="078-left-arrow" unicode="&#xe888;" d="M324 350l434 434c15 15 15 40 0 55-15 15-39 15-54 0l-462-462c-15-15-15-39 0-54l462-462c15-15 39-15 54 1 15 15 15 38 0 53l-434 435z" horiz-adv-x="1000" />

<glyph glyph-name="079-back-button" unicode="&#xe889;" d="M500-150c276 0 500 224 500 500 0 276-224 500-500 500s-500-224-500-500c0-276 224-500 500-500z m0 932c238 0 432-194 432-432 0-238-194-432-432-432-238 0-431 194-431 432 0 238 193 432 431 432z m-67-646c13-13 35-13 48 0 14 13 14 35 0 48l-131 132 381 0c19 0 34 15 34 34 0 19-15 34-34 34l-381 0 131 132c14 13 14 35 0 48-6 7-15 10-24 10-9 0-17-3-24-10l-190-190c-6-6-10-15-10-24 0-9 4-18 10-24l190-190z" horiz-adv-x="1000" />

<glyph glyph-name="080-up-arrow" unicode="&#xe88a;" d="M500 850c-276 0-500-224-500-500s224-500 500-500 500 224 500 500-224 500-500 500z m0-923c-233 0-422 190-422 423s189 423 422 423c233 0 423-190 423-423s-190-423-423-423z m221 370l-193 193c-16 15-40 15-55 0l-194-193c-12-15-12-36 0-51 14-16 39-18 55-4l166 166 167-166c15-15 39-15 54 0 15 15 15 39 0 55z" horiz-adv-x="1000" />

<glyph glyph-name="081-next-1" unicode="&#xe88b;" d="M500 850c-276 0-500-224-500-500s224-500 500-500 500 224 500 500-224 500-500 500z m0-917c-230 0-417 187-417 417s187 417 417 417 417-187 417-417-187-417-417-417z m-54 655c-16 16-42 16-59 0-16-16-16-43 0-59l179-179-179-179c-16-16-16-42 0-59 17-16 43-16 59 0l209 209c16 16 16 42 0 59l-209 208z" horiz-adv-x="1000" />

<glyph glyph-name="082-left-arrow-1" unicode="&#xe88c;" d="M500 850c-276 0-500-224-500-500s224-500 500-500 500 224 500 500-224 500-500 500z m0-938c-242 0-437 196-437 438s195 438 437 438 438-196 438-438-196-438-438-438z m72 710l-250-250c-13-12-13-32 0-44l250-250 44 44-228 228 228 228-44 44z" horiz-adv-x="1000" />

<glyph glyph-name="084-down-arrow" unicode="&#xe88d;" d="M1000 350c0 276-224 500-500 500s-500-224-500-500 224-500 500-500 500 224 500 500z m-950 0c0 248 202 450 450 450s450-202 450-450-202-450-450-450-450 202-450 450z m468-235l140 141c10 9 10 25 0 35s-25 10-35 0l-98-98v374c0 14-11 25-25 25s-25-11-25-25v-374l-98 98c-10 10-25 10-35 0s-10-25 0-35l140-141c5-5 12-7 18-7s13 2 18 7z" horiz-adv-x="1000" />

<glyph glyph-name="088-hand-1" unicode="&#xe88e;" d="M348 636a15 15 0 1 1 26 13l-37 76a15 15 0 1 1-26-13z m152 21a15 15 0 0 1 15 14v77a15 15 0 0 1-30 0v-77a15 15 0 0 1 15-14z m133-28a15 15 0 0 1 19 7l37 76a15 15 0 1 1-26 13l-37-76a15 15 0 0 1 7-20z m158-50a14 14 0 0 1 6-1 15 15 0 0 1 14 8l20 42a15 15 0 1 1-26 13l-21-42a15 15 0 0 1 7-20z m49-563l0 0-41 47a151 151 0 0 1-133 50l-123-15c-13-2-27 8-28 21a24 24 0 0 0 13 24l114 58a120 120 0 0 1 57 149l-8 20a102 102 0 0 1-142 54 24 24 0 0 0-30 8 23 23 0 0 0-4 18c3 12 15 17 24 23a146 146 0 0 0 194-42 15 15 0 0 1 24 17 176 176 0 0 1-63 55 174 174 0 0 1-149 6 24 24 0 0 0 11 25c48 28 106 36 154 11a147 147 0 0 0 53-46l81-116a15 15 0 0 1 24 17l-82 116a176 176 0 0 1-62 55c-60 31-126 22-183-12a53 53 0 0 1-22-64 78 78 0 0 1-19-13 74 74 0 0 1-19 13 53 53 0 0 1-22 64l-13 8a175 175 0 0 1-232-51l-211-301a15 15 0 0 1 24-17l211 301a146 146 0 0 0 193 43c11-7 28-18 24-33a174 174 0 0 1-149-6 176 176 0 0 1-63-55 15 15 0 1 1 24-17 146 146 0 0 0 194 42l13-8a24 24 0 0 0-23-41 102 102 0 0 1-142-54l-8-20a120 120 0 0 1 58-149l113-58a24 24 0 0 0 13-24c-1-13-15-23-28-21l-70 9a15 15 0 1 1-4-29l70-9a56 56 0 0 1 47 16 56 56 0 0 1 47-16l123 15a122 122 0 0 0 107-40l41-47 117-142a15 15 0 1 1 22 19z m-340 142a54 54 0 0 1-14 11l-114 58a91 91 0 0 0-44 113l8 20a72 72 0 0 0 101 38 53 53 0 0 1 63 11 53 53 0 0 1 63-11 72 72 0 0 0 101-38l8-20a91 91 0 0 0-44-113l-114-58a54 54 0 0 1-14-11z m497 57l-97 140a15 15 0 0 1-24-17l97-140a15 15 0 1 1 24 17z m-663-102a151 151 0 0 1-133-50l-41-47 0 0-117-142a15 15 0 1 1 22-19l117 142 41 47a122 122 0 0 0 107 40 15 15 0 1 1 4 29z m-144 473a15 15 0 0 1 13-8 14 14 0 0 1 6 1 15 15 0 0 1 7 20l-21 42a15 15 0 1 1-26-13z" horiz-adv-x="1000" />

</font>
</defs>
</svg>
